В сердце моря / In the Heart of the Sea (Рон Ховард) [2015, США, боевик, триллер, драма, приключения, биография, HDRip] [Чистый звук]

Ответить на тему
 

ruhal ®

Стаж: 2 года 6 месяцев

Сообщений: 1181

Симпатии: 1836

- -В сердце моря / In the Heart of the Sea-
Страна: США
Жанр: боевик, триллер, драма, приключения, биография
Год выпуска: 2015
Продолжительность: 02:01:39-Перевод: Дублированный [Чистый звук]
Cубтитры: нет-Режиссер: Рон Ховард-В ролях: Крис Хемсворт, Бен Уишоу, Киллиан Мёрфи, Том Холланд, Шарлотта Райли,
Брендан Глисон, Фрэнк Диллэйн, Пол Андерсон, Бенджамин Уокер, Мишель Фэйрли-Описание: В 1819 году американский корабль «Эссекс» с командой из двух десятков человек на борту
отправился из порта в штате Массачусетс на китобойный промысел. Осенью 1820-го успешная на протяжении полутора лет охота была прервана
атакой гигантского кашалота на судно, в результате чего морякам пришлось пересесть в шлюпки.
В течение трех с лишним месяцев они боролись за выживание посреди океана...-Качество видео: HDRip
Формат видео: AVI
Видео: Xvid 720x400 23.976fps 1401kbps
Аудио: Dolby AC3 48000Hz stereo 192kbps
-

MediaInfo

General
Complete name : E:\Films\8.SeRd3Se.MoRyA.2015.D.HDRip.1400MB.avi
Format : AVI
Format/Info : Audio Video Interleave
File size : 1.37 GiB
Duration : 2h 2mn
Overall bit rate : 1 603 Kbps
Writing application : VirtualDubMod 1.5.10.3 | www.virtualdub-fr.org || (build 2550/release)
Writing library : VirtualDubMod build 2550/release
Video
ID : 0
Format : MPEG-4 Visual
Format profile : Advanced [email protected]
Format settings, BVOP : 2
Format settings, QPel : No
Format settings, GMC : No warppoints
Format settings, Matrix : Default (MPEG)
Codec ID : XVID
Codec ID/Hint : XviD
Duration : 2h 2mn
Bit rate : 1 402 Kbps
Width : 720 pixels
Height : 400 pixels
Display aspect ratio : 16:9
Frame rate : 23.976 fps
Color space : YUV
Chroma subsampling : 4:2:0
Bit depth : 8 bits
Scan type : Progressive
Compression mode : Lossy
Bits/(Pixel*Frame) : 0.203
Stream size : 1.20 GiB (87%)
Writing library : XviD 1.2.1 (UTC 2008-12-04)
Audio
ID : 1
Format : AC-3
Format/Info : Audio Coding 3
Mode extension : CM (complete main)
Format settings, Endianness : Big
Codec ID : 2000
Duration : 2h 2mn
Bit rate mode : Constant
Bit rate : 192 Kbps
Channel(s) : 2 channels
Channel positions : Front: L R
Sampling rate : 48.0 KHz
Bit depth : 16 bits
Compression mode : Lossy
Stream size : 168 MiB (12%)
Alignment : Split accross interleaves
Interleave, duration : 42 ms (1.00 video frame)
Interleave, preload duration : 500 ms

Скриншот c названием фильма

Скриншоты





Последний раз редактировалось: ruhal (2016-02-24 19:21), всего редактировалось 2 раз(а)

Создавать темы 23-Фев-2016 19:36

[Профиль]  [ЛС] 

ruhal ®

Стаж: 2 года 6 месяцев

Сообщений: 1181

Симпатии: 1836

ПЕРЕЗАЛИЛ ТОРРЕНТ ФАЙЛ, ТЕПЕРЬ - ЭТОТ ФИЛЬМ С ЧИСТЫМ ЗВУКОМ!
(ЛЕНЬ БЫЛО НОВЫЙ РЕЛИЗ ДЕЛАТЬ, НАДЕЮСЬ НА ПОНИМАНИЕ!)

Комментарий от kat222000


Всё сделано по правилам!! На то эти релизы и временные!

Создавать темы 24-Фев-2016 19:18

[Профиль]  [ЛС] 
Показать сообщения:    
Ответить на тему

Текущее время: 24-Окт 11:03

Часовой пояс: UTC + 5



Вы не можете начинать темы
Вы не можете отвечать на сообщения
Вы не можете редактировать свои сообщения
Вы не можете удалять свои сообщения
Вы не можете голосовать в опросах
Вы не можете прикреплять файлы к сообщениям
Вы не можете скачивать файлы