Мандаринки-клипография, [2011-2015, Россия, Рэп, HDRip]

Ответить на тему
 

EPMAK ®

Стаж: 2 года 4 месяца

Сообщений: 255

Симпатии: 179

Мандаринки-клипография
Страна: Россия
Жанр: Рэп
Год выпуска: 2011-2015
Продолжительность: 00:14:47
Качество видео: HDRip
Формат видео: MP4
Cписок клипов:
1. Fachion
2. Fuck
3. Двигай попкой детка
4. Иди ты на...
5. Кайфую
Видео: AVC, 1280x720, 16:9, 25.000 fps, bitrate 2.845
Аудио: AAC, 44.1 KHz, 192 kbps, 2 channels

MediaInfo

General
Complete name : D:\Торрент\Мандаринки-клипография\MANDARINKI - FASHION (2012).mp4
Format : MPEG-4
Format profile : Base Media / Version 2
Codec ID : mp42 (isom/mp42)
File size : 61.0 MiB
Duration : 2mn 59s
Overall bit rate mode : Variable
Overall bit rate : 2 845 Kbps
Encoded date : UTC 2014-08-28 02:07:36
Tagged date : UTC 2014-08-28 02:07:36
gsst : 0
gstd : 180093
gssd : B53A9C5C5
Video
ID : 1
Format : AVC
Format/Info : Advanced Video Codec
Format profile : [email protected]
Format settings, CABAC : Yes
Format settings, ReFrames : 1 frame
Format settings, GOP : M=1, N=60
Codec ID : avc1
Codec ID/Info : Advanced Video Coding
Duration : 2mn 59s
Bit rate : 2 651 Kbps
Maximum bit rate : 5 564 Kbps
Width : 1 280 pixels
Height : 720 pixels
Display aspect ratio : 16:9
Frame rate mode : Constant
Frame rate : 25.000 fps
Color space : YUV
Chroma subsampling : 4:2:0
Bit depth : 8 bits
Scan type : Progressive
Bits/(Pixel*Frame) : 0.115
Stream size : 56.9 MiB (93%)
Tagged date : UTC 2014-08-28 02:07:38
Audio
ID : 2
Format : AAC
Format/Info : Advanced Audio Codec
Format profile : LC
Codec ID : 40
Duration : 2mn 59s
Bit rate mode : Variable
Bit rate : 192 Kbps
Maximum bit rate : 203 Kbps
Channel(s) : 2 channels
Channel positions : Front: L R
Sampling rate : 44.1 KHz
Frame rate : 43.066 fps (1024 spf)
Compression mode : Lossy
Stream size : 4.12 MiB (7%)
Title : IsoMedia File Produced by Google, 5-11-2011
Encoded date : UTC 2014-08-28 02:07:37
Tagged date : UTC 2014-08-28 02:07:38

Скриншоты









Последний раз редактировалось: EPMAK (2016-02-25 11:58), всего редактировалось 1 раз

Создавать темы 24-Фев-2016 22:28

[Профиль]  [ЛС] 
Показать сообщения:    
Ответить на тему

Текущее время: 21-Авг 22:38

Часовой пояс: UTC + 5



Вы не можете начинать темы
Вы не можете отвечать на сообщения
Вы не можете редактировать свои сообщения
Вы не можете удалять свои сообщения
Вы не можете голосовать в опросах
Вы не можете прикреплять файлы к сообщениям
Вы не можете скачивать файлы