Крампус / Krampus (Майкл Догерти) [2015, США, Новая Зеландия, ужасы, фэнтези, комедия, WEB-DLRip] Dub (Лицензия) + Sub (Rus)

Ответить на тему
 

lotto ®

Стаж: 7 лет 7 месяцев

Сообщений: 221

Симпатии: 409

Крампус / Krampus
«В этом году Санта Клаус не придёт»
-- Страна: США, Новая Зеландия
Жанр: ужасы, фэнтези, комедия
Год выпуска: 2015
Продолжительность: 01:37:41
Перевод: Профессиональный (дублированный) iTunes
Cубтитры: русские--Режиссер: Майкл Догерти
В ролях: Адам Скотт, Тони Коллетт, Дэвид Кокнер, Эллисон Толман, Кончата Феррелл, Эмджей Энтони, Стефания Оуэн, Криста Штадлер, Марк Аткин, Тревор Пау--Описание: История о демоне, который во время Рождества выискивает непослушных детей, чтобы наказать их.--Качество видео: WEB-DLRip
Формат видео: AVI
Видео: Xvid 720x304 23.976fps 1609kbps
Аудио: AC3 48000Hz 6ch 384kbps (русский, дубляж)
Формат субтитров: hardsub (неотключаемые)
Доп. информация о субтитрах: форсированные

MediaInfo

General
Complete name : KPampuC.2015.D.WEB-DLRip.14OOMb.avi
Format : AVI
Format/Info : Audio Video Interleave
File size : 1.37 GiB
Duration : 1h 37mn
Overall bit rate : 2 003 Kbps
Movie name : KPampuC.2015.D.WEB-DLRip.14OOMb
Writing application : VirtualDubMod 1.5.10.2 (build 2540/release)
Original source form/Name : Movie
Video
ID : 0
Format : MPEG-4 Visual
Format profile : Advanced [email protected]
Format settings, BVOP : 2
Format settings, QPel : No
Format settings, GMC : No warppoints
Format settings, Matrix : Default (MPEG)
Codec ID : XVID
Codec ID/Hint : XviD
Duration : 1h 37mn
Bit rate : 1 610 Kbps
Width : 720 pixels
Height : 304 pixels
Display aspect ratio : 2.35:1
Frame rate : 23.976 (24000/1001) fps
Color space : YUV
Chroma subsampling : 4:2:0
Bit depth : 8 bits
Scan type : Progressive
Compression mode : Lossy
Bits/(Pixel*Frame) : 0.307
Stream size : 1.10 GiB (80%)
Writing library : XviD 1.2.1 (UTC 2008-12-04)
Audio
ID : 1
Format : AC-3
Format/Info : Audio Coding 3
Mode extension : CM (complete main)
Format settings, Endianness : Big
Codec ID : 2000
Duration : 1h 37mn
Bit rate mode : Constant
Bit rate : 384 Kbps
Channel(s) : 6 channels
Channel positions : Front: L C R, Side: L R, LFE
Sampling rate : 48.0 KHz
Frame rate : 31.250 fps (1536 spf)
Compression mode : Lossy
Stream size : 268 MiB (19%)
Alignment : Split accross interleaves
Interleave, duration : 42 ms (1.00 video frame)
Interleave, preload duration : 500 ms

Скриншот c названием фильма

Скриншоты




Создавать темы 25-Фев-2016 09:28

[Профиль]  [ЛС] 

Cortex

Стаж: 6 лет

Сообщений: 42

Симпатии: 1

Встантье на раздачу плз

Создавать темы 05-Мар-2016 20:04

[Профиль]  [ЛС] 
Показать сообщения:    
Ответить на тему

Текущее время: 17-Авг 08:54

Часовой пояс: UTC + 5



Вы не можете начинать темы
Вы не можете отвечать на сообщения
Вы не можете редактировать свои сообщения
Вы не можете удалять свои сообщения
Вы не можете голосовать в опросах
Вы не можете прикреплять файлы к сообщениям
Вы не можете скачивать файлы