Новый мир / New World (Пак Хун Джон) [2013, Южная Корея, триллер, HDRip] (MVO)

Ответить на тему
 

virus-leo.uz ®

Стаж: 1 год 9 месяцев

Сообщений: 14

Симпатии: 7

-Новый мир / New World -
Страна: Южная Корея
Жанр: триллер
Год выпуска: 2013
Продолжительность: 02:15:15-Перевод: Любительский многоголосый
Cубтитры: нет-Режиссер: Пак Хун Джон-В ролях: Чхве Мин Сик, Хван Чжон Мин, Чан Гван,
Ли Чжон-чжэ, Пак Сон-Ун, Сон Чжи Хё-Описание: Детектив проникает в одну из крупнейших преступных группировок в стране и оказывается
вовлеченным в борьбу за место главы банды, когда тот умирает.-Качество видео: HDRip
Формат видео: AVI
Видео: Xvid 720x304 24fps 1344kbps
Аудио: Dolby AC3 48000Hz stereo 192kbps-

MediaInfo

General
Complete name                  : D:\Novyj.mir.2013.P.HDRip.avi
Format                         : AVI
Format/Info                    : Audio Video Interleave
File size                      : 1.46 GiB
Duration                       : 2h 15mn
Overall bit rate               : 1 546 Kbps
Writing application            : VirtualDubMod 1.5.10.2 (build 2540/release)
Writing library                : VirtualDubMod build 2540/release
Video
ID                             : 0
Format                         : MPEG-4 Visual
Format profile                 : Advanced [email protected]
Format settings, BVOP          : 2
Format settings, QPel          : No
Format settings, GMC           : No warppoints
Format settings, Matrix        : Default (MPEG)
Codec ID                       : XVID
Codec ID/Hint                  : XviD
Duration                       : 2h 15mn
Bit rate                       : 1 345 Kbps
Width                          : 720 pixels
Height                         : 304 pixels
Display aspect ratio           : 2.35:1
Frame rate                     : 24.000 fps
Color space                    : YUV
Chroma subsampling             : 4:2:0
Bit depth                      : 8 bits
Scan type                      : Progressive
Compression mode               : Lossy
Bits/(Pixel*Frame)             : 0.256
Stream size                    : 1.27 GiB (87%)
Writing library                : XviD 1.2.1 (UTC 2008-12-04)
Audio
ID                             : 1
Format                         : AC-3
Format/Info                    : Audio Coding 3
Mode extension                 : CM (complete main)
Format settings, Endianness    : Big
Codec ID                       : 2000
Duration                       : 2h 15mn
Bit rate mode                  : Constant
Bit rate                       : 192 Kbps
Channel(s)                     : 2 channels
Channel positions              : Front: L R
Sampling rate                  : 48.0 KHz
Bit depth                      : 16 bits
Compression mode               : Lossy
Stream size                    : 186 MiB (12%)
Alignment                      : Split accross interleaves
Interleave, duration           : 42 ms (1.00 video frame)
Interleave, preload duration   : 500 ms

Скриншот c названием фильма

Скриншоты






Последний раз редактировалось: virus-leo.uz (2016-02-26 20:07), всего редактировалось 10 раз(а)

Создавать темы 25-Фев-2016 16:48

[Профиль]  [ЛС] 

virus-leo.uz ®

Стаж: 1 год 9 месяцев

Сообщений: 14

Симпатии: 7

хороший фильм

Создавать темы 25-Фев-2016 17:12

[Профиль]  [ЛС] 

realcom91

Стаж: 6 лет 6 месяцев

Сообщений: 5

Симпатии: 3

Спасибо друг!

_________________
Подпись отключена за нарушение правил форума

Создавать темы 25-Фев-2016 17:23

[Профиль]  [ЛС] 

realcom91

Стаж: 6 лет 6 месяцев

Сообщений: 5

Симпатии: 3

Фильм мощь Советую всем!

_________________
Подпись отключена за нарушение правил форума

Создавать темы 25-Фев-2016 17:24

[Профиль]  [ЛС] 

ruhal

Стаж: 2 года 6 месяцев

Сообщений: 1181

Симпатии: 1836

Тех. данные не совпадают с Media Info, скриншоты залейте оригинального размера 720x304 и в виде картинок!
Исправляйте, а пока недооформлено!

Создавать темы 25-Фев-2016 21:37

[Профиль]  [ЛС] 

root

Стаж: 5 лет 4 месяца

Сообщений: 592

Симпатии: 172

Хороший , но жестокий фильм )
Думаю вы сочтете меня странным , но мне нравятся " китайский " стиль разборок , ведь они .... ведь они не приступают сразу к оружию , а стараются применить в бой свои кулаки и прочие части тела ) , например : засунуть голову в вентиляцию )
Рекомендую )

Создавать темы 25-Фев-2016 22:00

[Профиль]  [ЛС] 

virus-leo.uz ®

Стаж: 1 год 9 месяцев

Сообщений: 14

Симпатии: 7

я исправил

Создавать темы 26-Фев-2016 14:19

[Профиль]  [ЛС] 
Показать сообщения:    
Ответить на тему

Текущее время: 21-Окт 18:45

Часовой пояс: UTC + 5



Вы не можете начинать темы
Вы не можете отвечать на сообщения
Вы не можете редактировать свои сообщения
Вы не можете удалять свои сообщения
Вы не можете голосовать в опросах
Вы не можете прикреплять файлы к сообщениям
Вы не можете скачивать файлы