Большой брат / Мистер Шесть / Lao pao er (Гуань Ху) [2015, Китай, боевик, драма, WEBRip-AVC] VO + Sub (Eng, Cn, Rus)

Ответить на тему
 

lotto ®

Стаж: 7 лет 11 месяцев

Сообщений: 221

Симпатии: 409

Большой брат / Мистер Шесть / Mr.Six / Lao pao er-- --Страна: Китай
Жанр: боевик, драма
Год выпуска: 2015
Продолжительность: 02:16:40
Перевод: Одноголосый закадровый
Cубтитры: английские / китайские (хардсаб) + русские--Режиссер: Гуань Ху
В ролях: Ju-Gang Bai, Фэн Сяоган, Шан Цзянь, И Фэн Ли, Лян Цзин, Хуа Лю, Nuo Lu, Нин Хао, Yuxian Shang, Цзэжу Тао--Описание: Лю Е — 50-летний вор в законе, который когда-то царствовал на улицах Пекина. В преступных кругах его называли Лао Пао Эр, что означает «старая пушка». Однажды его непослушный сын ввязывается в потасовку с уличной бандой гонщиков. Лю Е вступается за сына, пытаясь усмирить молодёжь своим авторитетом. Однако оказалось, что молодые бандиты совершенно не знают, кто такой Лао Пао Эр, и у них есть свой лидер, Сяо Е Эр.--Качество видео: WEBRip-AVC
Формат видео: MKV
Видео: H264 720x272 25fps 1694 kbps
Аудио: AC3 48000Hz stereo 224kbps (русский, одноголосый)
Аудио 2: AC3 48000Hz stereo 224kbps (оригинал)
Формат субтитров: hardsub (неотключаемые) + SSA/ASS

MediaInfo

General
Complete name : Mr.SIX.2015.WEBRip-AVC.RU.CN.[BTT-TEAM].mkv
Format : Matroska
Format version : Version 4 / Version 2
File size : 2.05 GiB
Duration : 2h 16mn
Overall bit rate : 2 145 Kbps
Encoded date : UTC 2016-02-21 21:46:33
Writing application : mkvmerge v8.2.0 ('World of Adventure') 32bit
Writing library : libebml v1.3.1 + libmatroska v1.4.2
Attachments : arial.ttf / ARIALNB.TTF / ARIALNBI.TTF / AVA_TCUB.TTF / AVA_TCUI.TTF / MadZombies.ttf
Video
ID : 1
Format : AVC
Format/Info : Advanced Video Codec
Format profile : [email protected]
Format settings, CABAC : Yes
Format settings, ReFrames : 9 frames
Codec ID : V_MPEG4/ISO/AVC
Duration : 2h 16mn
Bit rate : 1 694 Kbps
Width : 720 pixels
Height : 272 pixels
Display aspect ratio : 2.647
Frame rate mode : Constant
Frame rate : 25.000 fps
Color space : YUV
Chroma subsampling : 4:2:0
Bit depth : 8 bits
Scan type : Progressive
Bits/(Pixel*Frame) : 0.346
Stream size : 1.62 GiB (79%)
Writing library : x264 core 148 r2638 7599210
Encoding settings : cabac=1 / ref=9 / deblock=1:-2:-1 / analyse=0x3:0x133 / me=umh / subme=10 / psy=1 / psy_rd=1.00:0.00 / mixed_ref=1 / me_range=24 / chroma_me=1 / trellis=2 / 8x8dct=1 / cqm=0 / deadzone=21,11 / fast_pskip=0 / chroma_qp_offset=-2 / threads=6 / lookahead_threads=1 / sliced_threads=0 / nr=0 / decimate=0 / interlaced=0 / bluray_compat=0 / constrained_intra=0 / bframes=9 / b_pyramid=2 / b_adapt=2 / b_bias=0 / direct=3 / weightb=1 / open_gop=1 / weightp=2 / keyint=250 / keyint_min=25 / scenecut=40 / intra_refresh=0 / rc_lookahead=60 / rc=2pass / mbtree=0 / bitrate=1694 / ratetol=1.0 / qcomp=0.70 / qpmin=10 / qpmax=51 / qpstep=4 / cplxblur=20.0 / qblur=0.5 / vbv_maxrate=62500 / vbv_bufsize=78125 / nal_hrd=none / filler=0 / ip_ratio=1.40 / pb_ratio=1.30 / aq=1:1.00
Language : English
Default : Yes
Forced : No
Color range : Limited
Matrix coefficients : BT.709
Audio #1
ID : 2
Format : AC-3
Format/Info : Audio Coding 3
Mode extension : CM (complete main)
Format settings, Endianness : Big
Codec ID : A_AC3
Duration : 2h 16mn
Bit rate mode : Constant
Bit rate : 224 Kbps
Channel(s) : 2 channels
Channel positions : Front: L R
Sampling rate : 48.0 KHz
Frame rate : 31.250 fps (1536 spf)
Compression mode : Lossy
Stream size : 219 MiB (10%)
Title : Ворон
Language : Russian
Default : Yes
Forced : No
Audio #2
ID : 3
Format : AC-3
Format/Info : Audio Coding 3
Mode extension : CM (complete main)
Format settings, Endianness : Big
Codec ID : A_AC3
Duration : 2h 16mn
Bit rate mode : Constant
Bit rate : 224 Kbps
Channel(s) : 2 channels
Channel positions : Front: L R
Sampling rate : 48.0 KHz
Frame rate : 31.250 fps (1536 spf)
Compression mode : Lossy
Stream size : 219 MiB (10%)
Title : Original
Language : Chinese
Default : No
Forced : No
Text #1
ID : 4
Format : ASS
Codec ID : S_TEXT/ASS
Codec ID/Info : Advanced Sub Station Alpha
Duration : 1h 0mn
Bit rate : 1 bps
Count of elements : 7
Compression mode : Lossless
Stream size : 728 Bytes (0%)
Title : форсированный(надписи)
Language : Russian
Default : Yes
Forced : Yes
Text #2
ID : 5
Format : ASS
Codec ID : S_TEXT/ASS
Codec ID/Info : Advanced Sub Station Alpha
Duration : 2h 13mn
Bit rate : 169 bps
Count of elements : 1908
Compression mode : Lossless
Stream size : 166 KiB (0%)
Title : Перевод - [Фансаб-группа WATT]
Language : Russian
Default : No
Forced : No

Скриншот c названием фильма

Скриншоты





Создавать темы 25-Фев-2016 21:10

[Профиль]  [ЛС] 
Показать сообщения:    
Ответить на тему

Текущее время: 17-Дек 03:25

Часовой пояс: UTC + 5



Вы не можете начинать темы
Вы не можете отвечать на сообщения
Вы не можете редактировать свои сообщения
Вы не можете удалять свои сообщения
Вы не можете голосовать в опросах
Вы не можете прикреплять файлы к сообщениям
Вы не можете скачивать файлы