Бородач / Сезон: 1 / Серии: 1-14 из 14 (Заур Болотаев) [2016, комедия, SATRip]

Ответить на тему
 

Sunnat1999 ®

Стаж: 4 года 7 месяцев

Сообщений: 756

Симпатии: 416

БородачСерии 1-14 из 14 -- Год выпуска: 2016
Производство: Россия, Comedy Club Production
Жанр: комедия
Продолжительность: ~00:25:00 серия
Режиссёр: Заур Болотаев-В ролях: Михаил Галустян, Демис Карибов, Дмитрий Никулин, Анна Уколова, Артур Казберов, Евгений Казанцев, Мария Староторжская, Михаил Куряев, Александр Луканичев, Дмитрий Меденников-Описание: Бесконечная смена мест работы, невероятные и безумные ситуации, в которые попадает герой, постоянные приводы в полицию и потрясающее обаяние комедийного персонажа шоу «Наша Russia» Александра Бородача.-Доп. информация:
 
-Качество: SATRip
Формат: AVI
Видео кодек: XviD
Аудио кодек: MP3
Видео: XviD, 1650 Кбит/с, 720x400
Аудио: MP3, 2 ch, 192 Кбит/с
-ВНИМАНИЕ! РАЗДАЧА ВЕДЁТСЯ ПУТЁМ ДОБАВЛЕНИЯ НОВЫХ СЕРИЙ!
ДОБАВЛЕНА 13-14 СЕРИЯ, ПЕРЕКАЧАЙТЕ ПОЖАЛУЙСТА ТОРРЕНТ!

Как обновить торрент

Когда раздача ведётся путём добавления новых серий, при каждом добавлении создётся новый торрент. Чтобы начать докачку новой серии, пользователям необходимо сделать следующее:
(1) остановить скачивание,
(2) удалить старый торрент у себя из клиента (старые серии удалять не надо),
(3) скачать новый торрент и запустить его у себя в клиенте вместо старого, при этом указать клиенту путь в старую папку, куда и должно происходить скачивание новых серий.
Ваш клиент при этом должен произвести хеширование (проверку) старой папки (если не производит сам - помогите ему сделать это), и будет докачивать только те серии, которых у вас ещё нет. Старые серии при этом не удаляются, а продолжают раздаваться!
Eсли вы уже удалили старые серии, то предотвратить повторную закачку старых серий можно, отжав галочку в соответсвующих местах при запуске нового торрента. По возможности, желательно не удалять старые серии как можно дольше, чтобы релизёр не столько продолжал раздавать старые серии, а смог сконцентрироваться на новых.

MI

Общее
Полное имя : \Borodach.2016.SATRip.BigFANGroup\Borodach.(02.seriya).2016.XviD.SATRip.BigFANGroup.avi
Формат : AVI
Формат/Информация : Audio Video Interleave
Размер файла : 284 Мбайт
Продолжительность : 21 м.
Общий поток : 1844 Кбит/сек
Программа кодирования : VirtualDubMod 1.5.10.3 (build 2550/release)
Библиотека кодирования : VirtualDubMod build 2550/release
Видео
Идентификатор : 0
Формат : MPEG-4 Visual
Профиль формата : Advanced [email protected]
Параметр BVOP формата : 1
Параметр QPel формата : Нет
Параметр GMC формата : Без точки перехода
Параметр матрицы формата : Default (MPEG)
Идентификатор кодека : XVID
Идентификатор кодека/Подсказка : XviD
Продолжительность : 21 м.
Битрейт : 1642 Кбит/сек
Ширина : 720 пикселей
Высота : 400 пикселей
Соотношение сторон : 16:9
Частота кадров : 25,000 кадров/сек
Цветовое пространство : YUV
Субдискретизация насыщенности : 4:2:0
Битовая глубина : 8 бит
Тип развёртки : Прогрессивная
Метод сжатия : С потерями
Бит/(Пиксели*Кадры) : 0.228
Размер потока : 253 Мбайт (89%)
Библиотека кодирования : XviD 1.2.1 (UTC 2008-12-04)
Аудио
Идентификатор : 1
Формат : MPEG Audio
Версия формата : Version 1
Профиль формата : Layer 3
Идентификатор кодека : 55
Идентификатор кодека/Подсказка : MP3
Продолжительность : 21 м.
Вид битрейта : Постоянный
Битрейт : 192 Кбит/сек
Каналы : 2 канала
Частота : 48,0 КГц
Метод сжатия : С потерями
Размер потока : 29,6 Мбайт (10%)
Выравнивание : Соединение по промежуткам
Продолжительность промежутка : 40 мс. (1,00 видеокадр)
Время предзагрузки промежутка : 504 мс.
Библиотека кодирования : LAME3.99r
Настройки программы : -m s -V 4 -q 2 -lowpass 18.6 -b 192

Скриншоты





Последний раз редактировалось: Sunnat1999 (2016-04-21 22:55), всего редактировалось 7 раз(а)

Создавать темы 26-Фев-2016 19:46

[Профиль]  [ЛС] 

Sunnat1999 ®

Стаж: 4 года 7 месяцев

Сообщений: 756

Симпатии: 416

ДОБАВЛЕНА 8 СЕРИЯ, ПЕРЕКАЧАЙТЕ ПОЖАЛУЙСТА ТОРРЕНТ!

Создавать темы 26-Фев-2016 19:47

[Профиль]  [ЛС] 

Sunnat1999 ®

Стаж: 4 года 7 месяцев

Сообщений: 756

Симпатии: 416

ДОБАВЛЕНА 9 СЕРИЯ, ПЕРЕКАЧАЙТЕ ПОЖАЛУЙСТА ТОРРЕНТ!

Создавать темы 04-Мар-2016 17:58

[Профиль]  [ЛС] 

ruhal

Стаж: 2 года 5 месяцев

Сообщений: 1181

Симпатии: 1836

Создавать темы 04-Мар-2016 18:35

[Профиль]  [ЛС] 

Sunnat1999 ®

Стаж: 4 года 7 месяцев

Сообщений: 756

Симпатии: 416

ДОБАВЛЕНА 10 СЕРИЯ, ПЕРЕКАЧАЙТЕ ПОЖАЛУЙСТА ТОРРЕНТ!

Создавать темы 11-Мар-2016 20:22

[Профиль]  [ЛС] 

Sunnat1999 ®

Стаж: 4 года 7 месяцев

Сообщений: 756

Симпатии: 416

ДОБАВЛЕНА 12 СЕРИЯ, ПЕРЕКАЧАЙТЕ ПОЖАЛУЙСТА ТОРРЕНТ!

Создавать темы 24-Мар-2016 20:50

[Профиль]  [ЛС] 

Sunnat1999 ®

Стаж: 4 года 7 месяцев

Сообщений: 756

Симпатии: 416

ДОБАВЛЕНА 13-14 СЕРИЯ, ПЕРЕКАЧАЙТЕ ПОЖАЛУЙСТА ТОРРЕНТ!

Создавать темы 26-Мар-2016 06:07

[Профиль]  [ЛС] 

Sunnat1999 ®

Стаж: 4 года 7 месяцев

Сообщений: 756

Симпатии: 416

КОНЕЦ!
В СМЫСЛЕ ФИНИШ!

Создавать темы 28-Мар-2016 15:03

[Профиль]  [ЛС] 
Показать сообщения:    
Ответить на тему

Текущее время: 25-Сен 14:46

Часовой пояс: UTC + 5



Вы не можете начинать темы
Вы не можете отвечать на сообщения
Вы не можете редактировать свои сообщения
Вы не можете удалять свои сообщения
Вы не можете голосовать в опросах
Вы не можете прикреплять файлы к сообщениям
Вы не можете скачивать файлы