Экстрасенсы / Solace (Афонсо Пойарт / Afonso Poyart) [2015 г., США, триллер, драма, криминал, детектив, HDRip] (MVO) (студия ProSound)

Ответить на тему
 

kat222000 ®

Стаж: 6 лет 4 месяца

Сообщений: 608

Симпатии: 1055

Экстрасенсы / Solace -Страна: США
Жанр: триллер, драма, криминал, детектив
Год выпуска: 2015
Продолжительность: 01:41:12
Перевод: Любительский (многоголосый, закадровый) (студия ProSound)
Субтитры: нет
Навигация по главам: нет-Режиссер: Афонсо Пойарт / Afonso Poyart-В ролях: Джеффри Дин Морган, Колин Фаррелл, Энтони Хопкинс, Эбби Корниш, Марли Шелтон, Джанин Тернер, Ксандер Беркли, Кенни Джонсон, Хосе Пабло Кантильо, Джошуа Клоуз-Описание: Джон Клэнси, экстрасенс, много раз помогавший ФБР в расследованиях неразрешимых преступлений, сталкивается с самым опасным делом в своей жизни. Его способность видеть прошлое оказывается бессильна перед новым противником — хладнокровным убийцей, который способен предвидеть будущее. Теперь, чтобы остановить серию убийств, Джон должен вступить в неравную схватку с расчётливым маньяком и найти способ загнать в ловушку того, кто всегда на десять шагов впереди.- -Возраст: зрителям, достигшим 18 лет-Рейтинг MPAA: лицам до 17 лет обязательно присутствие взрослого-Качество видео: HDRip
Формат видео: AVI
Видео кодек: XviD
Аудио кодек: AC3
Видео: 720x304 (2.35:1), 23.976 fps, XviD ~1 854 kbps avg, 0.353 bit/pixel
Аудио: 48 kHz, AC3 Dolby Digital, 2/0 (L,R), ~192.00 kbps avg (Русский | ProSound)-

〤 ОтчетМедиаИнфо 〤


General
Format : AVI
Format/Info : Audio Video Interleave
File size : 1.45 GiB
Duration : 1h 41mn
Overall bit rate : 2 055 Kbps
Writing application : VirtualDubMod 1.5.10.3 | www.virtualdub-fr.org || (build 2550/release)
Writing library : VirtualDubMod build 2550/release
Video
ID : 0
Format : MPEG-4 Visual
Format profile : Advanced [email protected]
Format settings, BVOP : 1
Format settings, QPel : No
Format settings, GMC : No warppoints
Format settings, Matrix : Custom
Codec ID : XVID
Codec ID/Hint : XviD
Duration : 1h 41mn
Bit rate : 1 773 Kbps
Width : 720 pixels
Height : 304 pixels
Display aspect ratio : 2.35:1
Frame rate : 23.976 fps
Color space : YUV
Chroma subsampling : 4:2:0
Bit depth : 8 bits
Scan type : Progressive
Compression mode : Lossy
Bits/(Pixel*Frame) : 0.338
Stream size : 1.25 GiB (86%)
Writing library : XviD 73
Audio
ID : 1
Format : AC-3
Format/Info : Audio Coding 3
Mode extension : CM (complete main)
Format settings, Endianness : Big
Codec ID : 2000
Duration : 1h 41mn
Bit rate mode : Constant
Bit rate : 192 Kbps
Channel(s) : 2 channels
Channel positions : Front: L R
Sampling rate : 48.0 KHz
Compression mode : Lossy
Stream size : 139 MiB (9%)
Alignment : Split accross interleaves
-

〤 Скриншоты 〤



- © Оформление by kat222000


Последний раз редактировалось: kat222000 (2016-02-29 00:17), всего редактировалось 1 раз

Создавать темы 26-Фев-2016 22:24

[Профиль]  [ЛС] 

kolbasnik

Стаж: 7 лет 7 месяцев

Сообщений: 21

Симпатии: 5

кто нить в курсе , дубляж ожидать?

Комментарий от kat222000


премьера (РФ) 31 марта 2016
Будет дубляж!

Создавать темы 27-Фев-2016 18:22

[Профиль]  [ЛС] 

kolbasnik

Стаж: 7 лет 7 месяцев

Сообщений: 21

Симпатии: 5

думаю тогда стоит подождать))) спасиб за инфу)

Комментарий от kat222000


(студия ProSound)
Вполне прилично перевели.

Создавать темы 27-Фев-2016 22:52

[Профиль]  [ЛС] 
Показать сообщения:    
Ответить на тему

Текущее время: 18-Авг 23:17

Часовой пояс: UTC + 5



Вы не можете начинать темы
Вы не можете отвечать на сообщения
Вы не можете редактировать свои сообщения
Вы не можете удалять свои сообщения
Вы не можете голосовать в опросах
Вы не можете прикреплять файлы к сообщениям
Вы не можете скачивать файлы