Незнакомец / El desconocido (Дэни Де Ла Торре / Dani de la Torre) [2015 г., Испания, триллер, HDRip] (MVO) [Paradox & Omskbird records]

Ответить на тему
 

kat222000 ®

Стаж: 6 лет 4 месяца

Сообщений: 608

Симпатии: 1055

Незнакомец / El desconocido -Страна: Испания
Жанр: триллер
Год выпуска: 2015
Продолжительность: 01:40:55
Перевод: Любительский (многоголосый, закадровый) [Paradox & Omskbird records]-Режиссер: Дэни Де Ла Торре / Dani de la Torre-В ролях: Луис Тосар (Carlos), Хавьер Гутьеррес (El Desconocido), Эльвира Мингес (Belén), Фернандо Кайо (Espinosa), Гойя Толедо (Marta), Паула дель Рио (Sara), Марко Санс (Marcos), Антонио Моурелос (Ángel), Рикардо де Баррейро (Víctor), Мария Мера (Julia), Луис Саера (Conductor), Хосе Барато (Tedax 1)-
Находясь в машине вместе со своими детьми, управляющий банка получает анонимный телефонный звонок. Незнакомый голос сообщает ему, что у него есть всего несколько часов, на то, чтобы найти большую сумму денег, иначе бомба под его сиденьем взорвется...- -Возраст: зрителям, достигшим 18 лет-Рейтинг MPAA: лицам до 17 лет обязательно присутствие взрослого-Качество видео: HDRip
Формат видео: AVI
Видео кодек: XviD
Аудио кодек: AC3
Видео: 720x304 (2.35:1), 23.976 fps, XviD ~1 489 kbps avg, 0.284 bit/pixel
Аудио: 48 kHz, AC3 Dolby Digital, AC3 Dolby Digital, 3/2 (L,C,R,l,r) + LFE ch, ~448.00 kbps avg (Русский | Paradox & Omskbird records)-

〤 ОтчетМедиаИнфо 〤


General
Формат : AVI
Формат/Info : Audio Video Interleave
Размер файла : 1.37 GiB
Длительность : 1h 40mn
Общий Битрейт : 1 947 Kbps
Создано приложением : VirtualDubMod 1.5.10.2 (build 2540/release)
Writing library : VirtualDubMod build 2540/release
Video
ID : 0
Формат : MPEG-4 Visual
Формат profile : Advanced [email protected]
Формат настройки, BVOP : 2
Формат настройки, QPel : No
Формат настройки, GMC : No warppoints
Формат настройки, Matrix : Default (MPEG)
Кодек ID : XVID
Кодек ID/Hint : XviD
Длительность : 1h 40mn
Битрейт : 1 490 Kbps
Width : 720 пикселей
Высота : 304 пикселей
Соотношение кадра : 2.35:1
Частота кадров : 23.976 fps
Цветопередача : YUV
Chroma subsampling : 4:2:0
Разрядность : 8 bits
Тип сканирования : Progressive
Режим сжатия : Lossy
Bits/(Pixel*Frame) : 0.284
Размер потока : 1.05 GiB (77%)
Writing library : XviD 1.2.1 (UTC 2008-12-04)
Audio
ID : 1
Формат : AC-3
Формат/Info : Audio Coding 3
Расширение режима : CM (complete main)
Кодек ID : 2000
Длительность : 1h 40mn
Битрейт mode : Constant
Битрейт : 448 Kbps
Channel(s) : 6 каналов
Channel positions : Front: L C R, Side: L R, LFE
Частота : 48.0 KHz
Разрядность : 16 bits
Режим сжатия : Lossy
Размер потока : 323 MiB (23%)
Выравнивание : Split accross interleaves
Interleave, Длительность : 42 ms (1.00 video frame)
Interleave, preload Длительность : 500 ms
-

〤 Скриншоты 〤



- © Оформление by kat222000

Создавать темы 28-Фев-2016 08:13

[Профиль]  [ЛС] 
Показать сообщения:    
Ответить на тему

Текущее время: 21-Авг 01:50

Часовой пояс: UTC + 5



Вы не можете начинать темы
Вы не можете отвечать на сообщения
Вы не можете редактировать свои сообщения
Вы не можете удалять свои сообщения
Вы не можете голосовать в опросах
Вы не можете прикреплять файлы к сообщениям
Вы не можете скачивать файлы