Боевой механизм / Swap / Weaponized (Тимоти Вудворд мл) [2016, США, фантастика, боевик, триллер, HDRip] [Parovoz Production]

Ответить на тему
 

ruhal ®

Стаж: 2 года 6 месяцев

Сообщений: 1181

Симпатии: 1836

- -Боевой механизм / Swap / Weaponized-
Страна: США
Жанр: фантастика, боевик, триллер
Год выпуска: 2016
Продолжительность: 01:31:21-Перевод: Любительский (дублированный) [Parovoz Production]
Cубтитры: нет-Режиссер: Тимоти Вудворд мл-В ролях: Том Сайзмор, Джонни Месснер, Микки Рурк, Тейлор Коул, Джон Фу,
Майкл Паре, Крис Дэймон, Каллен Дж. Чэмберс, Тимоти Вудворд мл., Джон Лофлин-Описание: Ближайшее будущее, биотехнологии достигли достаточного уровня, чтобы интегрировать воедино человеческую плоть и боевую роботизированную броню.
В секретных лабораториях созданы первые практически непобедимые солдаты-киборги. Полицейский детектив, расследуя убийство своего сына - жертвы теракта,
решает перепрограммировать киборгов и направить их против виновной террористической группировки.
Однако, вирус, которым он заражает командную систему биороботов превращает их в бесжалостных убийц всего живого вокруг...-Качество видео: HDRip
Формат видео: AVI
Видео: Xvid 720x304 23.976fps 1942kbps
Аудио: Dolby AC3 48000Hz stereo 192kbps
-

MediaInfo

General
Complete name : E:\Films\B0eV0y.MeXaN1zM.2016.L2.HDRip.1400MB.avi
Format : AVI
Format/Info : Audio Video Interleave
File size : 1.37 GiB
Duration : 1h 31mn
Overall bit rate : 2 144 Kbps
Writing application : VirtualDubMod 1.5.10.3 | www.virtualdub-fr.org || (build 2550/release)
Writing library : VirtualDubMod build 2550/release
Video
ID : 0
Format : MPEG-4 Visual
Format profile : Advanced [email protected]
Format settings, BVOP : 2
Format settings, QPel : No
Format settings, GMC : No warppoints
Format settings, Matrix : Default (MPEG)
Codec ID : XVID
Codec ID/Hint : XviD
Duration : 1h 31mn
Bit rate : 1 943 Kbps
Width : 720 pixels
Height : 304 pixels
Display aspect ratio : 2.35:1
Frame rate : 23.976 fps
Color space : YUV
Chroma subsampling : 4:2:0
Bit depth : 8 bits
Scan type : Progressive
Compression mode : Lossy
Bits/(Pixel*Frame) : 0.370
Stream size : 1.24 GiB (91%)
Writing library : XviD 1.2.1 (UTC 2008-12-04)
Audio
ID : 1
Format : AC-3
Format/Info : Audio Coding 3
Mode extension : CM (complete main)
Format settings, Endianness : Big
Codec ID : 2000
Duration : 1h 31mn
Bit rate mode : Constant
Bit rate : 192 Kbps
Channel(s) : 2 channels
Channel positions : Front: L R
Sampling rate : 48.0 KHz
Bit depth : 16 bits
Compression mode : Lossy
Stream size : 125 MiB (9%)
Alignment : Split accross interleaves
Interleave, duration : 42 ms (1.00 video frame)
Interleave, preload duration : 500 ms

Скриншот c названием фильма

Скриншоты



Создавать темы 28-Фев-2016 09:23

[Профиль]  [ЛС] 

Valtor32

Стаж: 4 года 8 месяцев

Сообщений: 7

Симпатии: 5

В живых шестеро сидов - но все зарезали раздачу... Не стыдно пацаны?

Создавать темы 29-Фев-2016 01:04

[Профиль]  [ЛС] 

pavel

Стаж: 7 лет 10 месяцев

Сообщений: 2

Симпатии: 3

Фильм полное д...мо, бюджет наверно не превышает 100 тыс.
Похожа на ТВ3 даже не стоит терять времени.
Уважаемый ruhal, хотелось Вас попросить указывать рейтинг и данные по фильмы, бюджет и т.д.
Не хочется терять время на такие фильмы.

Комментарий от ruhal


Учтем

Создавать темы 03-Мар-2016 08:31

[Профиль]  [ЛС] 

sbb0770

Стаж: 7 лет 9 месяцев

Сообщений: 4

968878Фильм полное д...мо, бюджет наверно не превышает 100 тыс.
Похожа на ТВ3 даже не стоит терять времени.
Уважаемый ruhal, хотелось Вас попросить указывать рейтинг и данные по фильмы, бюджет и т.д.
Не хочется терять время на такие фильмы.
Спасибо за информацию... ap

Создавать темы 04-Мар-2016 19:22

[Профиль]  [ЛС] 

kap

Стаж: 5 лет 4 месяца

Сообщений: 8

Симпатии: 1

фигня полное,кино для детей

Создавать темы 05-Мар-2016 10:28

[Профиль]  [ЛС] 

Umrbek1987

Стаж: 7 лет 4 месяца

Сообщений: 4

Тогда в топку его

Создавать темы 24-Мар-2016 10:38

[Профиль]  [ЛС] 

100stiks

Стаж: 4 года 8 месяцев

Сообщений: 35

Симпатии: 3

А я уже качаю ..... люблю про киборгов )

Создавать темы 28-Мар-2016 12:31

[Профиль]  [ЛС] 

kiborg911

Стаж: 6 лет 8 месяцев

Сообщений: 58

Симпатии: 3

Вот блин,хорошо прочитал отзывы,ладно уговорили не буду качать)))

Создавать темы 30-Мар-2016 23:56

[Профиль]  [ЛС] 

Андрей Варабей

Стаж: 4 года 7 месяцев

Сообщений: 67

Симпатии: 1

Фильм смотрелся бы круто в 90 года,когда только зарубежка попадала на экраны.

Создавать темы 28-Май-2016 18:40

[Профиль]  [ЛС] 

asimpsons

Стаж: 5 лет 4 месяца

Сообщений: 3

Присутствует внешний ip
mail.milkeurofood.com

Создавать темы 01-Июн-2016 00:14

[Профиль]  [ЛС] 

abuz85

Стаж: 8 лет 9 месяцев

Сообщений: 109

Симпатии: 80

mail.milkeurofood.com резолвится в 87.237.234.243. Данный IP-адрес входит в TAS-IX.

Создавать темы 01-Июн-2016 01:53

[Профиль]  [ЛС] 

qwertyyy

Стаж: 4 года 9 месяцев

Сообщений: 46

Симпатии: 2

Фильм - унылая серость.

Создавать темы 12-Июн-2016 10:49

[Профиль]  [ЛС] 

manutd27

Стаж: 2 года 7 месяцев

Сообщений: 36

Симпатии: 24

скока негативных комов о фильме а скачали аж 1835 раз))). больше тока у дедпула

Создавать темы 06-Июл-2016 13:06

[Профиль]  [ЛС] 

XaNNa

Стаж: 1 год 6 месяцев

Сообщений: 8

Симпатии: 2

Обновите скриншоты!

Создавать темы 29-Июл-2016 07:24

[Профиль]  [ЛС] 

Богдан-net

Стаж: 1 год 5 месяцев

Сообщений: 66

Симпатии: 8

978344Обновите скриншоты!
ты что поклонник Хилари Клинтон аватар у тебя провокационный

Создавать темы 29-Июл-2016 21:23

[Профиль]  [ЛС] 
Показать сообщения:    
Ответить на тему

Текущее время: 24-Окт 03:48

Часовой пояс: UTC + 5



Вы не можете начинать темы
Вы не можете отвечать на сообщения
Вы не можете редактировать свои сообщения
Вы не можете удалять свои сообщения
Вы не можете голосовать в опросах
Вы не можете прикреплять файлы к сообщениям
Вы не можете скачивать файлы