Богатырша (Ольга Лопато) [2015 г., Россия, мультфильм, BDRip] (Оригинал) [Лицензия]

Ответить на тему
 

kat222000 ®

Стаж: 6 лет 8 месяцев

Сообщений: 608

Симпатии: 1055

Богатырша«Самый сказочный блокбастер Нового года» -Страна: Россия
Жанр: мультфильм
Год выпуска: 2015
Продолжительность: 01:15:47
Перевод: Оригинал [Лицензия]-Режиссер: Ольга Лопато-В ролях: Анна Хилькевич (Роса, озвучка), Алексей Чумаков (средняя голова дракона, озвучка), Гарик Харламов (правая голова, озвучка), Тимур Батрутдинов (левая голова, озвучка), Михаил Пореченков (Бориполк, озвучка), Алёна Бабенко (Рогнеда, озвучка), Борис Щербаков (князь, озвучка), Мирослава Карпович (княжна, озвучка), Армен Джигарханян (дед Пихто, озвучка), Василиса Эльдарова (Роса в детстве, озвучка)-
…И было предсказание славному витязю Бориполку, что у него родится сын, который станет великим воином и спасет Русь от великой напасти. Но, как всегда, все вышло наоборот: у героя родилась… дочка. А спасения Руси никто не отменял. И как сражаться с врагом, когда у него три головы, и каждая со своими выкрутасами?- -Качество видео: BDRip
Формат видео: AVI
Видео кодек: XviD
Аудио кодек: AC3
Видео: 720x304 (2.37:1), 25 fps, XviD build 73 ~2276 kbps avg, 0.42 bit/pixel
Аудио: 48 kHz, AC3 Dolby Digital, AC3 Dolby Digital, 3/2 (L,C,R,l,r) + LFE ch, ~448.00 kbps avg (Русский | Лицензия)-

〤 ОтчетМедиаИнфо 〤

General
Format : AVI
Format/Info : Audio Video Interleave
File size : 1.45 GiB
Duration : 1h 15mn
Overall bit rate : 2 735 Kbps
Movie name : Bogatyrsha.2015.O.BDRip.1.45Gb_by_Twi7ter
Director : Twi7ter
Genre : Family
Writing application : VirtualDubMod 1.5.10.3 (build 2550/release)
Original source form/Name : Cartoon
Video
ID : 0
Format : MPEG-4 Visual
Format profile : Advanced [email protected]
Format settings, BVOP : 2
Format settings, QPel : No
Format settings, GMC : No warppoints
Format settings, Matrix : Custom
Codec ID : XVID
Codec ID/Hint : XviD
Duration : 1h 15mn
Bit rate : 2 277 Kbps
Width : 720 pixels
Height : 304 pixels
Display aspect ratio : 2.35:1
Frame rate : 25.000 fps
Color space : YUV
Chroma subsampling : 4:2:0
Bit depth : 8 bits
Scan type : Progressive
Compression mode : Lossy
Bits/(Pixel*Frame) : 0.416
Stream size : 1.21 GiB (83%)
Writing library : XviD 73
Audio
ID : 1
Format : AC-3
Format/Info : Audio Coding 3
Mode extension : CM (complete main)
Format settings, Endianness : Big
Codec ID : 2000
Duration : 1h 15mn
Bit rate mode : Constant
Bit rate : 448 Kbps
Channel(s) : 6 channels
Channel positions : Front: L C R, Side: L R, LFE
Sampling rate : 48.0 KHz
Compression mode : Lossy
Stream size : 243 MiB (16%)
Alignment : Split accross interleaves
Interleave, duration : 40 ms (1.00 video frame)
Interleave, preload duratio : 500 ms
-

〤 Скриншоты 〤



- © Оформление by kat222000

Создавать темы 28-Фев-2016 18:28

[Профиль]  [ЛС] 

Tolstii

Стаж: 6 лет 7 месяцев

Сообщений: 33

спс за релиз .но скорость скачивания низкая

Комментарий от kat222000


Наверно все УО Сидов: 14

Создавать темы 05-Мар-2016 23:59

[Профиль]  [ЛС] 

Tolstii

Стаж: 6 лет 7 месяцев

Сообщений: 33

Привет всем. Втаньте на раздачу кому не сложно ,дайте докачать

Создавать темы 25-Июл-2016 18:44

[Профиль]  [ЛС] 
Показать сообщения:    
Ответить на тему

Текущее время: 16-Дек 00:47

Часовой пояс: UTC + 5



Вы не можете начинать темы
Вы не можете отвечать на сообщения
Вы не можете редактировать свои сообщения
Вы не можете удалять свои сообщения
Вы не можете голосовать в опросах
Вы не можете прикреплять файлы к сообщениям
Вы не можете скачивать файлы