Видения / Visions (Кевин Гротерт / Kevin Greutert) [2015 г., США, ужасы, триллер, HDRip] (DUB) [Лицензия] + Original (Eng)

Ответить на тему
 

kat222000 ®

Стаж: 6 лет 6 месяцев

Сообщений: 608

Симпатии: 1055

Видения / Visions«И кровь окрасит землю» -Страна: США
Жанр: ужасы, триллер
Год выпуска: 2015
Продолжительность: 01:22:25
Перевод: Профессиональный (полное дублирование) [Лицензия]-Режиссер: Кевин Гротерт / Kevin Greutert-В ролях: Айла Фишер (Eveleigh Maddox), Энсон Маунт (David Maddox), Гиллиан Джейкобс (Sadie), Джоанна Кэссиди (Helena), Ева Лонгория (Eileen), Джим Парсонс (Dr. Mathison), Майкл Виллар (Leo), Брайс Джонсон (Ben), Джон де Ланси (Victor Napoli), Энни Тедеско (Victoria Lambert), Роберто «Санс» Санчес (Emilio), Джефф Брэнсон (Glenn Barry)-
Чтобы быть рядом со своим мужем, беременная женщина переезжает на виноградную ферму. Там ее начинают одолевать страшные видения…- -Возраст: зрителям, достигшим 18 лет-Рейтинг MPAA: лицам до 17 лет обязательно присутствие взрослого-Качество видео: HDRip
Формат видео: AVI
Видео кодек: XviD
Аудио кодек: AC3
Видео: 720x304 (2.35:1), 23.976 fps, XviD ~1 826 kbps avg, 0,348 bit/pixel
Аудио 1: 48 kHz, AC3 Dolby Digital, AC3 Dolby Digital, 3/2 (L,C,R,l,r) + LFE ch, ~384.00 kbps avg (Русский | DUB)
Аудио 2: 48 kHz, AC3 Dolby Digital, AC3 Dolby Digital, 2/0 (L,R), ~192.00 kbps avg (English | Original)-

〤 ОтчетМедиаИнфо 〤

General
Формат : AVI
Формат/Info : Audio Video Interleave
Размер файла : 1.45 GiB
Длительность : 1h 22mn
Общий Битрейт : 2 513 Kbps
Создано приложением : VirtualDubMod 1.5.10.2 (build 2540/release)
Writing library : VirtualDubMod build 2540/release
Video
ID : 0
Формат : MPEG-4 Visual
Формат profile : Advanced [email protected]
Формат настройки, BVOP : 2
Формат настройки, QPel : No
Формат настройки, GMC : No warppoints
Формат настройки, Matrix : Default (MPEG)
Кодек ID : XVID
Кодек ID/Hint : XviD
Длительность : 1h 22mn
Битрейт : 1 827 Kbps
Width : 720 пикселей
Высота : 304 пикселей
Соотношение кадра : 2.35:1
Частота кадров : 23.976 fps
Цветопередача : YUV
Chroma subsampling : 4:2:0
Разрядность : 8 bits
Тип сканирования : Progressive
Режим сжатия : Lossy
Bits/(Pixel*Frame) : 0.348
Размер потока : 1.05 GiB (73%)
Writing library : XviD 1.2.1 (UTC 2008-12-04)
Audio #1
ID : 1
Формат : AC-3
Формат/Info : Audio Coding 3
Расширение режима : CM (complete main)
Кодек ID : 2000
Длительность : 1h 22mn
Битрейт mode : Constant
Битрейт : 384 Kbps
Channel(s) : 6 каналов
Channel positions : Front: L C R, Side: L R, LFE
Частота : 48.0 KHz
Разрядность : 16 bits
Режим сжатия : Lossy
Размер потока : 226 MiB (15%)
Выравнивание : Split accross interleaves
Audio #2
ID : 2
Формат : AC-3
Формат/Info : Audio Coding 3
Расширение режима : CM (complete main)
Кодек ID : 2000
Длительность : 1h 22mn
Битрейт mode : Constant
Битрейт : 192 Kbps
Channel(s) : 2 канала
Channel positions : Front: L R
Частота : 48.0 KHz
Разрядность : 16 bits
Режим сжатия : Lossy
Размер потока : 113 MiB (8%)
Выравнивание : Split accross interleaves
-

〤 Скриншоты 〤



- © Оформление by kat222000

Создавать темы 28-Фев-2016 21:43

[Профиль]  [ЛС] 

Powered by GMC

Стаж: 1 год 11 месяцев

Сообщений: 202

Симпатии: 31

фильмец классно! спс kat222000

Создавать темы 08-Мар-2016 14:41

[Профиль]  [ЛС] 

Homercompany

Стаж: 7 лет 7 месяцев

Сообщений: 234

Симпатии: 7

Кто скачал вернитесь на раздачу. Скорости вообщем нет...

Создавать темы 16-Мар-2016 23:09

[Профиль]  [ЛС] 
Показать сообщения:    
Ответить на тему

Текущее время: 18-Окт 07:06

Часовой пояс: UTC + 5



Вы не можете начинать темы
Вы не можете отвечать на сообщения
Вы не можете редактировать свои сообщения
Вы не можете удалять свои сообщения
Вы не можете голосовать в опросах
Вы не можете прикреплять файлы к сообщениям
Вы не можете скачивать файлы