Удар Крови / Strike the Blood (Ямамото Хидэё) [OVA] [2 из 2] [Без Хардсаба] [RUS(ext), JAP+SUB] [2015 г. Приключения, фэнтези, комедия, этти, сверхъестественное] [BDRip 720p]

Ответить на тему
 

Dragneel ®

Стаж: 6 лет 9 месяцев

Сообщений: 50

Симпатии: 9

- Страна: Япония
Год выпуска: 2015 г.
Дата выпуска: c 25.11.2015 по 23.12.2015
Жанр: Приключения, фэнтези, комедия, этти, сверхъестественное
Тип: OVA
Количество эпизодов: 2 из 2
Продолжительность: 25 минуты-Перевод:
  • Русская Озвучка: Ancord, JAM, Nika Lenina (AniDUB)
-Режиссер: Ямамото Хидэё
Автор оригинала / Сценарист: Микумо Гакуто
Студия: Silver Link.-Описание: Человечество заключило с демоническими силами нерушимый мирный договор, который от имени нечисти и нежити заверили три Истинных Предка, высшие князья вампиров. Только мало кто знает, что существует и Четвертый Предок, сильнейший вампир в истории, и уж совсем узкому кругу известно, что она, то ли по воле судьбы, то ли по собственному капризу, недавно передала свой дух и силу японскому старшекласснику Кодзё Акацуки. Парень в один миг превратился в угрозу мировому равновесию и, понимая это, изо всех сил пытается вести привычную жизнь, не открываясь ни старым друзьям, ни младшей сестренке Нагисе. Пытается-то он пытается, да кто же такому поверит?!
Акацуки учится в островном городе Итогами, специально созданном для совместного проживания людей и демонов. Мало того, что его лоли-учительница Нацуки – сильный боевой маг, так еще правительство отправляет следить за бедным Кодзё школьницу-мико Юкину Химэраги, вооруженную чудо-копьем «Снежный вальс». 15-летняя Юкина, воспитанная в лесном монастыре, видит задачу просто – с объектом надо всегда быть рядом, остальное не важно. Наивная девочка не понимает, что при этом подопечный может и не выжить от потери крови… э-э, в основном через нос. Ничего, природа возьмет свое, и красавица вернет милому вампиру кровь с лихвой! И, поверьте, не она одна!© Hollow, World Art-Информационные ссылки: AniDB | MAL | World-Art-Качество: BDRip
Тип видео: Без хардсаба, без линковки
Формат: mp4
Энкод: Ohys-Raws
Видео: H264, 1280x720, 8bits, 2287kbps, 23.976fps
Аудио JAP: AAC, 2ch, 202kbps, 48kHz
Аудио JAP 2: AAC, 2ch, 168kbps, 48kHz (Комментарии)
Аудио RUS: AAC, 2ch, 192kbps, 48kHz (Внешними файлами)
-

Media Info

D:\Мультфильмы\Anime\Strike the Blood OVA\Strike the Blood OVA - 01 Kingdom of The Valkyrja I (BD 1280x720 x264 AAC).mp4
   General
      Complete name : D:\Мультфильмы\Anime\Strike the Blood OVA\Strike the Blood OVA - 01 Kingdom of The Valkyrja I (BD 1280x720 x264 AAC).mp4
      Format : MPEG-4
      Format profile : Base Media
      Codec ID : isom
      File size : 444 MiB
      Duration : 23mn 17s
      Overall bit rate mode : Variable
      Overall bit rate : 2 662 Kbps
      Encoded date : UTC 2015-11-26 15:32:29
      Tagged date : UTC 2015-11-26 15:32:29
   Video #1
      ID : 1
      Format : AVC
      Format/Info : Advanced Video Codec
      Format profile : [email protected]
      Format settings, CABAC : Yes
      Format settings, ReFrames : 4 frames
      Codec ID : avc1
      Codec ID/Info : Advanced Video Coding
      Duration : 23mn 17s
      Bit rate : 2 287 Kbps
      Maximum bit rate : 10.6 Mbps
      Width : 1 280 pixels
      Height : 720 pixels
      Display aspect ratio : 16:9
      Frame rate mode : Constant
      Frame rate : 23.976 fps
      Color space : YUV
      Chroma subsampling : 4:2:0
      Bit depth : 8 bits
      Scan type : Progressive
      Bits/(Pixel*Frame) : 0.103
      Stream size : 381 MiB (86%)
      Writing library : x264 core 148 r2638 7599210
      Encoding settings : cabac=1 / ref=3 / deblock=1:0:0 / analyse=0x1:0x131 / me=umh / subme=9 / psy=1 / psy_rd=1.00:0.00 / mixed_ref=1 / me_range=32 / chroma_me=1 / trellis=1 / 8x8dct=0 / cqm=0 / deadzone=21,11 / fast_pskip=1 / chroma_qp_offset=-2 / threads=12 / lookahead_threads=1 / sliced_threads=0 / nr=0 / decimate=1 / interlaced=0 / bluray_compat=0 / constrained_intra=0 / bframes=3 / b_pyramid=2 / b_adapt=1 / b_bias=0 / direct=1 / weightb=1 / open_gop=0 / weightp=2 / keyint=240 / keyint_min=1 / scenecut=40 / intra_refresh=0 / rc_lookahead=40 / rc=crf / mbtree=1 / crf=17.0 / qcomp=0.60 / qpmin=0 / qpmax=69 / qpstep=4 / ip_ratio=1.40 / aq=1:1.00
      Encoded date : UTC 2015-11-26 15:32:29
      Tagged date : UTC 2015-11-26 15:32:31
   Audio #2
      ID : 2
      Format : AAC
      Format/Info : Advanced Audio Codec
      Format profile : LC
      Codec ID : 40
      Duration : 23mn 17s
      Bit rate mode : Variable
      Bit rate : 202 Kbps
      Maximum bit rate : 270 Kbps
      Channel(s) : 2 channels
      Channel positions : Front: L R
      Sampling rate : 48.0 KHz
      Compression mode : Lossy
      Stream size : 33.6 MiB (8%)
      Language : Japanese
      Encoded date : UTC 2015-11-26 15:30:23
      Tagged date : UTC 2015-11-26 15:32:31
   Audio #3
      ID : 3
      Format : AAC
      Format/Info : Advanced Audio Codec
      Format profile : LC
      Codec ID : 40
      Duration : 23mn 17s
      Bit rate mode : Variable
      Bit rate : 168 Kbps
      Maximum bit rate : 263 Kbps
      Channel(s) : 2 channels
      Channel positions : Front: L R
      Sampling rate : 48.0 KHz
      Compression mode : Lossy
      Stream size : 28.0 MiB (6%)
      Language : Japanese
      Encoded date : UTC 2015-11-26 15:31:08
      Tagged date : UTC 2015-11-26 15:32:31

Создавать темы 29-Фев-2016 00:35

[Профиль]  [ЛС] 
Показать сообщения:    
Ответить на тему

Текущее время: 23-Окт 07:16

Часовой пояс: UTC + 5



Вы не можете начинать темы
Вы не можете отвечать на сообщения
Вы не можете редактировать свои сообщения
Вы не можете удалять свои сообщения
Вы не можете голосовать в опросах
Вы не можете прикреплять файлы к сообщениям
Вы не можете скачивать файлы