Крадущийся тигр, затаившийся дракон: Меч судьбы / Crouching Tiger, Hidden Dragon: Sword of Destiny (Юэнь Воо-пин) [2016, США, фэнтези, боевик, драма, приключения, WEB-DLRip] (MVO)

Ответить на тему
 

ruhal ®

Стаж: 2 года 7 месяцев

Сообщений: 1181

Симпатии: 1836

-Крадущийся тигр, затаившийся дракон: Меч судьбы / Crouching Tiger, Hidden Dragon: Sword of Destiny- -Страна: США
Жанр: фэнтези, боевик, драма, приключения
Год выпуска: 2016
Продолжительность: 01:39:43-Перевод: Любительский (многоголосый)
Cубтитры: нет-Режиссер: Юэнь Воо-пин-В ролях: Донни Йен, Мишель Йео, Гарри Шам мл., Джейсон Скотт Ли,Евгения Йуан, Жужу Чан, Крис Пэнг, Дэррил Квон, Роджер Йуан-Описание: История об утраченной любви, юной любви,легендарном мече и единственном шансе на спасение.-Качество видео: WEB-DLRip
Формат видео: AVI
Видео: Xvid 720x304 23.976fps 1865kbps
Аудио: Dolby AC3 48000Hz stereo 192kbps
-

MediaInfo

General
Complete name : E:\Films\Kt.Zd.Ms.2016.L.WEB-DLRip.1.45GB.avi
Format : AVI
Format/Info : Audio Video Interleave
File size : 1.46 GiB
Duration : 1h 40mn
Overall bit rate : 2 067 Kbps
Writing application : VirtualDubMod 1.5.10.3 | www.virtualdub-fr.org || (build 2550/release)
Writing library : VirtualDubMod build 2550/release
Video
ID : 0
Format : MPEG-4 Visual
Format profile : Advanced [email protected]
Format settings, BVOP : 2
Format settings, QPel : No
Format settings, GMC : No warppoints
Format settings, Matrix : Default (MPEG)
Codec ID : XVID
Codec ID/Hint : XviD
Duration : 1h 40mn
Bit rate : 1 865 Kbps
Width : 720 pixels
Height : 304 pixels
Display aspect ratio : 2.35:1
Frame rate : 23.976 fps
Color space : YUV
Chroma subsampling : 4:2:0
Bit depth : 8 bits
Scan type : Progressive
Compression mode : Lossy
Bits/(Pixel*Frame) : 0.355
Stream size : 1.31 GiB (90%)
Writing library : XviD 1.2.1 (UTC 2008-12-04)
Audio
ID : 1
Format : AC-3
Format/Info : Audio Coding 3
Mode extension : CM (complete main)
Format settings, Endianness : Big
Codec ID : 2000
Duration : 1h 40mn
Bit rate mode : Constant
Bit rate : 192 Kbps
Channel(s) : 2 channels
Channel positions : Front: L R
Sampling rate : 48.0 KHz
Bit depth : 16 bits
Compression mode : Lossy
Stream size : 138 MiB (9%)
Alignment : Split accross interleaves
Interleave, duration : 42 ms (1.00 video frame)
Interleave, preload duration : 500 ms

Скриншот c названием фильма

Скриншоты



Последний раз редактировалось: ruhal (2016-04-22 12:27), всего редактировалось 2 раз(а)

Создавать темы 29-Фев-2016 19:56

[Профиль]  [ЛС] 

Hancock

Стаж: 7 лет 1 месяц

Сообщений: 48

Симпатии: 1

да название старого фильма.

Создавать темы 04-Мар-2016 12:10

[Профиль]  [ЛС] 

hasanoff

Стаж: 5 лет 8 месяцев

Сообщений: 18

Симпатии: 1

Как фильм ребята? Стоит качать?

Создавать темы 09-Мар-2016 16:19

[Профиль]  [ЛС] 
Показать сообщения:    
Ответить на тему

Текущее время: 18-Ноя 09:49

Часовой пояс: UTC + 5



Вы не можете начинать темы
Вы не можете отвечать на сообщения
Вы не можете редактировать свои сообщения
Вы не можете удалять свои сообщения
Вы не можете голосовать в опросах
Вы не можете прикреплять файлы к сообщениям
Вы не можете скачивать файлы