«Оскар» (88-я церемония вручения премии) / The 88th Annual Academy Awards [2016,США, ТВ-шоу, концерт, SATRip]

Ответить на тему
 

ruhal ®

Стаж: 2 года 6 месяцев

Сообщений: 1181

Симпатии: 1836

-«Оскар» (88-я церемония вручения премии) / The 88th Annual Academy Awards- - Год выпуска: 2015
Страна: США
Жанр: ТВ-шоу, концерт
Продолжительность:
1 Часть - 01:27:42
2 Часть - 01:19:42
3 Часть - 00:57:42
Перевод: Русский, Украинский-Ведущий: Хэмиш Гамильтон
Ведущий: Крис Рок
Комментатор: Олег Панюта, Ольга Бутко-Oписание:
88-я церемония вручения премии «Оскар» за заслуги в области кинематографа за 2015 год состоялась 29 февраля 2016 года в Лос-Анджелесе.
Номинанты были объявлены 15 января 2016 года. Ведущим церемонии стал Крис Рок-Качество:SATRip
Формат: AVI
Видео: Xvid 720x400 25fps 2498kbps
Аудио: MP3 48000Hz stereo 192kbps
-

MediaInfo

General
Format : AVI
Format/Info : Audio Video Interleave
File size : 1.65 GiB
Duration : 1h 27mn
Overall bit rate : 2 700 Kbps
Writing application : VirtualDubModRus 1.5.10.2 (build 2542/release)
Writing library : VirtualDubMod build 2542/release
Video
ID : 0
Format : MPEG-4 Visual
Format profile : Advanced [email protected]
Format settings, BVOP : 2
Format settings, QPel : No
Format settings, GMC : No warppoints
Format settings, Matrix : Default (H.263)
Muxing mode : Packed bitstream
Codec ID : XVID
Codec ID/Hint : XviD
Duration : 1h 27mn
Bit rate : 2 498 Kbps
Width : 720 pixels
Height : 400 pixels
Display aspect ratio : 16:9
Frame rate : 25.000 fps
Color space : YUV
Chroma subsampling : 4:2:0
Bit depth : 8 bits
Scan type : Progressive
Compression mode : Lossy
Bits/(Pixel*Frame) : 0.347
Stream size : 1.53 GiB (93%)
Writing library : XviD 1.2.1 (UTC 2008-12-04)
Audio
ID : 1
Format : MPEG Audio
Format version : Version 1
Format profile : Layer 3
Codec ID : 55
Codec ID/Hint : MP3
Duration : 1h 27mn
Bit rate mode : Constant
Bit rate : 192 Kbps
Channel(s) : 2 channels
Sampling rate : 48.0 KHz
Compression mode : Lossy
Stream size : 120 MiB (7%)
Alignment : Aligned on interleaves
Interleave, duration : 40 ms (1.00 video frame)
Interleave, preload duration : 504 ms
Writing library : LAME3.99.5ЄЄЄЄЄЄЄЄЄЄ

Screenshots




Последний раз редактировалось: ruhal (2016-11-03 10:41), всего редактировалось 1 раз

Создавать темы 29-Фев-2016 21:17

[Профиль]  [ЛС] 

apache

Стаж: 6 лет 8 месяцев

Сообщений: 24

Симпатии: 1

Нет в раздаче русского языка, зачем наврали? все 3 файла на украинском языке. Исправьте описание

Создавать темы 01-Мар-2016 16:29

[Профиль]  [ЛС] 

juggernaut

Стаж: 6 лет 6 месяцев

Сообщений: 24

Симпатии: 2

дайте в оригинале....

Создавать темы 02-Мар-2016 00:13

[Профиль]  [ЛС] 

homes

Стаж: 4 года 4 месяца

Сообщений: 11

Симпатии: 3

добавьте пожалуйста оригинальную дорожку

Создавать темы 06-Мар-2016 17:33

[Профиль]  [ЛС] 
Показать сообщения:    
Ответить на тему

Текущее время: 17-Окт 22:02

Часовой пояс: UTC + 5



Вы не можете начинать темы
Вы не можете отвечать на сообщения
Вы не можете редактировать свои сообщения
Вы не можете удалять свои сообщения
Вы не можете голосовать в опросах
Вы не можете прикреплять файлы к сообщениям
Вы не можете скачивать файлы