Кухня / Сезон: 6 / Серии: 1-20 из 20 (Дмитрий Дьяченко, Жора Крыжовников, Антон Федотов) [2015, Комедия, WEB-DLRip 720р]

Страницы :  1, 2  След.

Ответить на тему
 

Sunnat1999 ®

Стаж: 4 года 6 месяцев

Сообщений: 756

Симпатии: 416

Кухня
Сезон: 6 / Серии: 1-20 из 20-- Год выпуска: 2015
Производство: Россия
Жанр: Комедия
Продолжительность: ~ 00:25:00 серия
Субтитры: нет-Режиссёр: Дмитрий Дьяченко, Жора Крыжовников, Антон Федотов-В ролях: Дмитрий Назаров, Марк Богатырев, Дмитрий Нагиев, Елена Подкаминская, Марина Могилевская, Ольга Кузьмина, Сергей Лавыгин, Жаныл Асанбекова, Никита Тарасов, Виктор Хориняк, Екатерина Кузнецова, Елена Чернявская, Юлия Такшина, Сергей Епишев, Михаил Тарабукин-Описание: Совсем недавно завершилась премьера долгожданного пятого сезона сериала. Но, как и следовало ожидать, интрига сохранилась даже после трогательного воссоединения Макса (Марк Богатырев) и Виктории (Елена Подкаминская). Сможет ли Макс сохранить семейные ценности, к которым пришлось идти так долго? Сумеет ли он подавить в себе окончательно любовь к авантюрам и безобидной лжи, которая всегда раскрывалась не в его пользу? Справится ли главный герой с возложенной на него ответственностью быть хорошим отцом и гениальным шеф-поваром знаменитого французского ресторана?-Доп. информация:
 
-Альтернативная раздача: http://www.tas-ix.net/viewtopic.php?t=112374
Качество: WEB-DLRip 720p
Формат: MKV
Видео кодек: MPEG-4 AVC
Аудио кодек: AC3
Видео: MPEG-4 AVC, ~ 2800 Кбит/с, 1280х720
Аудио: AC3, 2 ch, 192 Кбит/с-ВНИМАНИЕ! РАЗДАЧА ВЕДЁТСЯ ПУТЁМ ДОБАВЛЕНИЯ НОВЫХ СЕРИЙ!
ДОБАВЛЕНА 20 СЕРИЯ! ОБНОВИТЕ ПОЖАЛУЙСТА ТОРРЕНТ!

Как обновить торрент

Когда раздача ведётся путём добавления новых серий, при каждом добавлении создётся новый торрент. Чтобы начать докачку новой серии, пользователям необходимо сделать следующее:
(1) остановить скачивание,
(2) удалить старый торрент у себя из клиента (старые серии удалять не надо),
(3) скачать новый торрент и запустить его у себя в клиенте вместо старого, при этом указать клиенту путь в старую папку, куда и должно происходить скачивание новых серий.
Ваш клиент при этом должен произвести хеширование (проверку) старой папки (если не производит сам - помогите ему сделать это), и будет докачивать только те серии, которых у вас ещё нет. Старые серии при этом не удаляются, а продолжают раздаваться!
Eсли вы уже удалили старые серии, то предотвратить повторную закачку старых серий можно, отжав галочку в соответсвующих местах при запуске нового торрента. По возможности, желательно не удалять старые серии как можно дольше, чтобы релизёр не столько продолжал раздавать старые серии, а смог сконцентрироваться на новых.

MI

General
Unique ID : 105455353612970601960303774424812057911 (0x4F55F65B626D29A5524D7ACD21657537)
Complete name : \Kuchnia.2015.WEB-DL.720.Files-x\01.Kuchnia.2015.WEB-DL.720.Files-x.mkv
Format : Matroska
Format version : Version 4 / Version 2
File size : 521 MiB
Duration : 27mn 10s
Overall bit rate : 2 679 Kbps
Writing application : Lavf56.25.101
Writing library : Lavf56.25.101
Video
ID : 1
Format : AVC
Format/Info : Advanced Video Codec
Format profile : [email protected]
Format settings, CABAC : No
Format settings, ReFrames : 3 frames
Codec ID : V_MPEG4/ISO/AVC
Duration : 27mn 10s
Bit rate : 2 500 Kbps
Width : 1 280 pixels
Height : 720 pixels
Display aspect ratio : 16:9
Frame rate mode : Constant
Frame rate : 25.000 fps
Color space : YUV
Chroma subsampling : 4:2:0
Bit depth : 8 bits
Scan type : Progressive
Bits/(Pixel*Frame) : 0.109
Stream size : 473 MiB (91%)
Writing library : x264 core 142
Encoding settings : cabac=0 / ref=3 / deblock=1:0:0 / analyse=0x1:0x111 / me=hex / subme=7 / psy=1 / psy_rd=1.00:0.00 / mixed_ref=1 / me_range=16 / chroma_me=1 / trellis=1 / 8x8dct=0 / cqm=0 / deadzone=21,11 / fast_pskip=1 / chroma_qp_offset=-2 / threads=36 / lookahead_threads=5 / sliced_threads=0 / nr=0 / decimate=1 / interlaced=0 / bluray_compat=0 / constrained_intra=0 / bframes=0 / weightp=0 / keyint=250 / keyint_min=25 / scenecut=40 / intra_refresh=0 / rc_lookahead=40 / rc=abr / mbtree=1 / bitrate=2500 / ratetol=1.0 / qcomp=0.60 / qpmin=0 / qpmax=69 / qpstep=4 / ip_ratio=1.40 / aq=1:1.00
Default : Yes
Forced : No
Audio
ID : 2
Format : AC-3
Format/Info : Audio Coding 3
Mode extension : CM (complete main)
Format settings, Endianness : Big
Codec ID : A_AC3
Duration : 27mn 10s
Bit rate mode : Constant
Bit rate : 192 Kbps
Channel(s) : 2 channels
Channel positions : Front: L R
Sampling rate : 48.0 KHz
Bit depth : 16 bits
Compression mode : Lossy
Stream size : 37.3 MiB (7%)
Default : Yes
Forced : No
Скриншоты:


Последний раз редактировалось: Sunnat1999 (2016-04-21 22:54), всего редактировалось 17 раз(а)

Создавать темы 01-Мар-2016 11:24

[Профиль]  [ЛС] 

Sunnat1999 ®

Стаж: 4 года 6 месяцев

Сообщений: 756

Симпатии: 416

Как и в прошлом сезоне эта раздача будет выходить позже версии в качестве SATRip:
http://www.tas-ix.net/viewtopic.php?t=112374
на 1 день

Создавать темы 01-Мар-2016 11:44

[Профиль]  [ЛС] 

Sunnat1999 ®

Стаж: 4 года 6 месяцев

Сообщений: 756

Симпатии: 416

ДОБАВЛЕНИА 3 СЕРИЯ! ОБНОВИТЕ ПОЖАЛУЙСТА ТОРРЕНТ!

Создавать темы 02-Мар-2016 07:50

[Профиль]  [ЛС] 

Sunnat1999 ®

Стаж: 4 года 6 месяцев

Сообщений: 756

Симпатии: 416

ДОБАВЛЕНИА 4 СЕРИЯ! ОБНОВИТЕ ПОЖАЛУЙСТА ТОРРЕНТ!

Создавать темы 03-Мар-2016 16:01

[Профиль]  [ЛС] 

Sunnat1999 ®

Стаж: 4 года 6 месяцев

Сообщений: 756

Симпатии: 416

ДОБАВЛЕНИА 5 СЕРИЯ! ОБНОВИТЕ ПОЖАЛУЙСТА ТОРРЕНТ!

Создавать темы 04-Мар-2016 17:08

[Профиль]  [ЛС] 

Mirhodi

Стаж: 5 лет 3 месяца

Сообщений: 23

Симпатии: 2

Почему скорости нету хотя столко сидов раздаёт

Создавать темы 06-Мар-2016 14:11

[Профиль]  [ЛС] 

bekxem1

Стаж: 5 лет 2 месяца

Сообщений: 3

6 и 7ую серию выложите плизз 

Создавать темы 10-Мар-2016 13:45

[Профиль]  [ЛС] 

Sunnat1999 ®

Стаж: 4 года 6 месяцев

Сообщений: 756

Симпатии: 416

ДОБАВЛЕНЫ 6-8 СЕРИИ! ОБНОВИТЕ ПОЖАЛУЙСТА ТОРРЕНТ!

Создавать темы 11-Мар-2016 08:31

[Профиль]  [ЛС] 

Sunnat1999 ®

Стаж: 4 года 6 месяцев

Сообщений: 756

Симпатии: 416

ДОБАВЛЕНА 9 СЕРИЯ! ОБНОВИТЕ ПОЖАЛУЙСТА ТОРРЕНТ!

Создавать темы 15-Мар-2016 06:42

[Профиль]  [ЛС] 

Sunnat1999 ®

Стаж: 4 года 6 месяцев

Сообщений: 756

Симпатии: 416

ДОБАВЛЕНА 10 СЕРИЯ! ОБНОВИТЕ ПОЖАЛУЙСТА ТОРРЕНТ!

Создавать темы 16-Мар-2016 09:26

[Профиль]  [ЛС] 

Sunnat1999 ®

Стаж: 4 года 6 месяцев

Сообщений: 756

Симпатии: 416

ДОБАВЛЕНА 11 СЕРИЯ! ОБНОВИТЕ ПОЖАЛУЙСТА ТОРРЕНТ!

Создавать темы 17-Мар-2016 08:14

[Профиль]  [ЛС] 

Sunnat1999 ®

Стаж: 4 года 6 месяцев

Сообщений: 756

Симпатии: 416

ДОБАВЛЕНА 15 СЕРИЯ! ОБНОВИТЕ ПОЖАЛУЙСТА ТОРРЕНТ!

Создавать темы 24-Мар-2016 17:59

[Профиль]  [ЛС] 

Sunnat1999 ®

Стаж: 4 года 6 месяцев

Сообщений: 756

Симпатии: 416

ДОБАВЛЕНА 16 СЕРИЯ! ОБНОВИТЕ ПОЖАЛУЙСТА ТОРРЕНТ!

Создавать темы 25-Мар-2016 14:32

[Профиль]  [ЛС] 

Sunnat1999 ®

Стаж: 4 года 6 месяцев

Сообщений: 756

Симпатии: 416

ДОБАВЛЕНА 17 СЕРИЯ! ОБНОВИТЕ ПОЖАЛУЙСТА ТОРРЕНТ!

Создавать темы 29-Мар-2016 09:24

[Профиль]  [ЛС] 

Sunnat1999 ®

Стаж: 4 года 6 месяцев

Сообщений: 756

Симпатии: 416

ДОБАВЛЕНА 18 СЕРИЯ! ОБНОВИТЕ ПОЖАЛУЙСТА ТОРРЕНТ!

Создавать темы 30-Мар-2016 09:59

[Профиль]  [ЛС] 
Показать сообщения:    
Ответить на тему

Текущее время: 23-Авг 17:04

Часовой пояс: UTC + 5



Вы не можете начинать темы
Вы не можете отвечать на сообщения
Вы не можете редактировать свои сообщения
Вы не можете удалять свои сообщения
Вы не можете голосовать в опросах
Вы не можете прикреплять файлы к сообщениям
Вы не можете скачивать файлы