Купидонов шоколад / Aishen Qiaokeli-ing [TV] [15 из 15] [Без хардсаба] [2016, WEBDLRip, комедия] [720p] [AniDub]

Ответить на тему
 

maksimus_1712 ®

Стаж: 4 года 2 месяца

Сообщений: 122

Симпатии: 68

-Купидонов шоколад / Aishen Qiaokeli-ing- Год: 2015
Жанр: комедия
Страна: Китай
Количество серий: 15
Продолжительность: 13мин
Дата выпуска: c 02.12.2015
Озвучивание: Demetra, Cuba77
Перевод: Cuba77
Описание: Полнейший треш и содомия! Обычный, ничем не примечательный молодой человек по имени Дзян Хау, сам не ведая того, попробовал шоколад Бога Любви. На следующий день выяснилось, что королева красоты всей академии, где он учится, от него залетела, со звездой спортклуба он уже живет вместе, а у красотки-ботанши у них уже двое детей...и это не предел новых открытий в его жизни.-Качество: WEBDLRip
Формат видео: MP4
Видео: x264,1280x720,688kbps,25fps
Аудио: ААС, 48000Hz, ~186kbps, 2ch- -

MediaInfo

General
Complete name                  : [AniDub]_Aishen_Qiaokeli_ING_[1]_[Demetra_Cuba77].mp4
Format                         : MPEG-4
Format profile                 : Base Media
Codec ID                       : isom
File size                      : 86.1 MiB
Duration                       : 13mn 42s
Overall bit rate mode          : Variable
Overall bit rate               : 878 Kbps
Encoded date                   : UTC 2016-01-30 06:11:12
Tagged date                    : UTC 2016-01-30 06:11:12
Writing application            : Yamb 2.1.0.0 [http://yamb.unite-video.com]
Video
ID                             : 1
Format                         : AVC
Format/Info                    : Advanced Video Codec
Format profile                 : [email protected]
Format settings, CABAC         : Yes
Format settings, ReFrames      : 5 frames
Codec ID                       : avc1
Codec ID/Info                  : Advanced Video Coding
Duration                       : 13mn 42s
Bit rate                       : 688 Kbps
Maximum bit rate               : 3 103 Kbps
Width                          : 1 280 pixels
Height                         : 720 pixels
Display aspect ratio           : 16:9
Frame rate mode                : Constant
Frame rate                     : 25.000 fps
Color space                    : YUV
Chroma subsampling             : 4:2:0
Bit depth                      : 8 bits
Scan type                      : Progressive
Bits/(Pixel*Frame)             : 0.030
Stream size                    : 67.5 MiB (78%)
Writing library                : x264 core 142
Encoding settings              : cabac=1 / ref=5 / deblock=1:0:0 / analyse=0x3:0x113 / me=hex / subme=7 / psy=0 / mixed_ref=1 / me_range=16 / chroma_me=1 / trellis=1 / 8x8dct=1 / cqm=0 / deadzone=21,11 / fast_pskip=1 / chroma_qp_offset=0 / threads=36 / lookahead_threads=5 / sliced_threads=0 / nr=0 / decimate=1 / interlaced=0 / bluray_compat=0 / constrained_intra=0 / bframes=3 / b_pyramid=2 / b_adapt=1 / b_bias=0 / direct=1 / weightb=1 / open_gop=0 / weightp=2 / keyint=90 / keyint_min=9 / scenecut=40 / intra_refresh=0 / rc_lookahead=40 / rc=crf / mbtree=1 / crf=27.0 / qcomp=0.60 / qpmin=0 / qpmax=69 / qpstep=4 / vbv_maxrate=2500 / vbv_bufsize=5000 / crf_max=0.0 / nal_hrd=none / filler=0 / ip_ratio=1.40 / aq=2:1.00
Tagged date                    : UTC 2016-01-30 06:11:20
Audio
ID                             : 2
Format                         : AAC
Format/Info                    : Advanced Audio Codec
Format profile                 : LC
Codec ID                       : 40
Duration                       : 13mn 42s
Bit rate mode                  : Variable
Bit rate                       : 186 Kbps
Maximum bit rate               : 200 Kbps
Channel(s)                     : 2 channels
Channel positions              : Front: L R
Sampling rate                  : 48.0 KHz
Compression mode               : Lossy
Stream size                    : 18.3 MiB (21%)
Language                       : English
Encoded date                   : UTC 2016-01-30 06:11:13
Tagged date                    : UTC 2016-01-30 06:11:20


Последний раз редактировалось: maksimus_1712 (2016-03-24 11:45), всего редактировалось 3 раз(а)

Создавать темы 01-Мар-2016 15:59

[Профиль]  [ЛС] 

maksimus_1712 ®

Стаж: 4 года 2 месяца

Сообщений: 122

Симпатии: 68

13-Серия

Создавать темы 08-Мар-2016 12:15

[Профиль]  [ЛС] 

Азиз87

Стаж: 4 года 11 месяцев

Сообщений: 752

Симпатии: 143

Вышла 14 серия. Ждем появления субтитров и озвучки. СПС автору за такой интересный релиз.

Создавать темы 10-Мар-2016 01:32

[Профиль]  [ЛС] 

maksimus_1712 ®

Стаж: 4 года 2 месяца

Сообщений: 122

Симпатии: 68

-14-15-Серия-Второй сезон в сентябре!-

Создавать темы 24-Мар-2016 11:50

[Профиль]  [ЛС] 
Показать сообщения:    
Ответить на тему

Текущее время: 24-Окт 11:01

Часовой пояс: UTC + 5



Вы не можете начинать темы
Вы не можете отвечать на сообщения
Вы не можете редактировать свои сообщения
Вы не можете удалять свои сообщения
Вы не можете голосовать в опросах
Вы не можете прикреплять файлы к сообщениям
Вы не можете скачивать файлы