Субура / Suburra (Стефано Соллима / Stefano Sollima) [2015, Италия, Франция, триллер, драма, криминал, BDRip-AVC] VO (А. Матвеев)

Ответить на тему
 

kat222000 ®

Стаж: 6 лет 7 месяцев

Сообщений: 608

Симпатии: 1055

Субура / Suburra -Страна: Италия, Франция
Жанр: триллер, драма, криминал
Год выпуска: 2015
Продолжительность: 02:15:06
Перевод: Авторский (одноголосый, закадровый) [А. Матвеев]- Режиссер: Стефано Соллима / Stefano Sollima- В ролях: Грета Скарано (Viola), Пьерфранческо Фавино (Filippo Malgradi), Жан-Юг Англад (Cardinal Berchet), Элио Джермано (Sebastiano), Клаудио Амендола (Samurai), Алессандро Борги (Numero 8), Лидия Витале (Moglie Malgradi), Джулия Гориетти (Sabrina), Светлана Кевраль (Rumena), Юлия Коломиец (Jelena), Адамо Дионизи (Manfredi Anacleti), Антонелло Фассари (Padre di Sebastiano)-
Субура — известный в античности, как опасный, шумный, сырой и грязный, с множеством торговцев и проституток, район Древнего Рима. И спустя несколько тысячелетий среди великолепного городского пейзажа Рима разыгрываются отвратительные сцены из спектакля под названием жизнь. Гангстер по прозвищу Самурай хочет превратить пригород Рима в новый Лас-Вегас. Все местные криминальные авторитеты согласились работать для достижения общей цели. Но этот мир продлится недолго…- -Возраст: зрителям, достигшим 18 лет-Рейтинг MPAA: лицам до 17 лет обязательно присутствие взрослого- Качество видео: BDRip-AVC
Формат видео: MKV
Видео кодек: AVC
Аудио кодек: AC3
Видео: 1024x436 (2.35:1), 24.000 fps, AVC ~1 860 kbps avg, 0.174 bit/pixel
Аудио: 48 kHz, AC3 Dolby Digital, AC3 Dolby Digital, 3/2 (L,C,R,l,r) + LFE ch, ~448.00 kbps avg (Русский | А. Матвеев)-

〤 ОтчетМедиаИнфо 〤


General
Unique ID : 213203326362668485796820325691992373728 (0xA06577907D47311F8DCA4415CB64F9E0)
Format : Matroska
Format version : Version 2
File size : 2.18 GiB
Duration : 2h 15mn
Overall bit rate : 2 309 Kbps
Encoded date : UTC 2016-02-27 21:17:21
Writing application : mkvmerge v7.8.0 ('River Man') 32bit built on Apr 3 2015 12:11:22
Writing library : libebml v1.3.1 + libmatroska v1.4.2
Video
ID : 1
Format : AVC
Format/Info : Advanced Video Codec
Format profile : [email protected]
Format settings, CABAC : Yes
Format settings, ReFrames : 12 frames
Codec ID : V_MPEG4/ISO/AVC
Duration : 2h 15mn
Bit rate : 1 860 Kbps
Width : 1 024 pixels
Height : 436 pixels
Display aspect ratio : 2.35:1
Frame rate : 24.000 fps
Color space : YUV
Chroma subsampling : 4:2:0
Bit depth : 8 bits
Scan type : Progressive
Bits/(Pixel*Frame) : 0.174
Stream size : 1.71 GiB (79%)
Writing library : x264 core 146 r2538 121396c
Encoding settings : cabac=1 / ref=12 / deblock=1:-3:-3 / analyse=0x3:0x113 / me=umh / subme=11 / psy=1 / psy_rd=1.00:0.00 / mixed_ref=1 / me_range=48 / chroma_me=1 / trellis=2 / 8x8dct=1 / cqm=0 / deadzone=21,11 / fast_pskip=0 / chroma_qp_offset=-2 / threads=12 / lookahead_threads=3 / sliced_threads=0 / nr=0 / decimate=1 / interlaced=0 / bluray_compat=0 / constrained_intra=0 / bframes=13 / b_pyramid=2 / b_adapt=2 / b_bias=0 / direct=3 / weightb=1 / open_gop=0 / weightp=2 / keyint=240 / keyint_min=23 / scenecut=40 / intra_refresh=0 / rc_lookahead=40 / rc=2pass / mbtree=1 / bitrate=1860 / ratetol=1.0 / qcomp=0.60 / qpmin=0 / qpmax=69 / qpstep=4 / cplxblur=20.0 / qblur=0.5 / vbv_maxrate=14000 / vbv_bufsize=14000 / nal_hrd=none / filler=0 / ip_ratio=1.40 / aq=1:1.00
Default : Yes
Forced : No
Audio
ID : 2
Format : AC-3
Format/Info : Audio Coding 3
Mode extension : CM (complete main)
Codec ID : A_AC3
Duration : 2h 15mn
Bit rate mode : Constant
Bit rate : 448 Kbps
Channel(s) : 6 channels
Channel positions : Front: L C R, Side: L R, LFE
Sampling rate : 48.0 KHz
Bit depth : 16 bits
Compression mode : Lossy
Stream size : 433 MiB (19%)
Default : Yes
Forced : No
-

〤 Скриншоты 〤



- © Оформление by kat222000

Создавать темы 01-Мар-2016 22:00

[Профиль]  [ЛС] 

Ma4ete

Стаж: 6 лет 10 месяцев

Сообщений: 166

Симпатии: 23

kat222000, релизов у тебя много, но скорости нет.
Помогу пока кто нибудь не скачает.

Создавать темы 05-Мар-2016 03:42

[Профиль]  [ЛС] 
Показать сообщения:    
Ответить на тему

Текущее время: 24-Ноя 21:54

Часовой пояс: UTC + 5



Вы не можете начинать темы
Вы не можете отвечать на сообщения
Вы не можете редактировать свои сообщения
Вы не можете удалять свои сообщения
Вы не можете голосовать в опросах
Вы не можете прикреплять файлы к сообщениям
Вы не можете скачивать файлы