Школяры-Цензоры / Wangpai Yushi [10 из 39+sp] [TV] [Без хардсаба] [2014, WEBDLRip, приключения, фэнтези, комедия] [720p] [AniDub]

Ответить на тему
 

maksimus_1712 ®

Стаж: 4 года 4 месяца

Сообщений: 122

Симпатии: 68

-Школяры-Цензоры / Wangpai Yushi- Год: 2014
Жанр: приключения, фэнтези, комедия
Страна: Китай
Количество серий: 40
Продолжительность: 10 мин
Дата выпуска: c 25.11.2014
Озвучивание: Esther, Cuba77
Перевод: Cuba77-Описание: Сумеречный скиталец И Ен собирается стать лучшим среди цензоров - специальных чувих и чуваков, которые защищают людей от озлобленных духов, демонов и всякой другой нечисти. Но на его пути встает не менее опытная и сильная цензор - скитающийся дух Хонсяо Инг. Их методы работы сильно отличаются, да и не очень то они друг друга переваривают. Однако им предстоит поработать вместе.-Качество: WEBDLRip
Формат видео: MP4
Видео: x264,1280x720, 25fps, 1159kbps
Аудио: ААС, 48000Hz, ~185kbps, 2ch- -

MediaInfo

General
Complete name                  : [AniDub]_Wangpai_Yushi_[00]_[Esther_Cuba77].mp4
Format                         : MPEG-4
Format profile                 : Base Media
Codec ID                       : isom
File size                      : 122 MiB
Duration                       : 12mn 39s
Overall bit rate mode          : Variable
Overall bit rate               : 1 348 Kbps
Encoded date                   : UTC 2016-02-29 15:35:10
Tagged date                    : UTC 2016-02-29 15:35:10
Writing application            : Yamb 2.1.0.0 [http://yamb.unite-video.com]
Video
ID                             : 1
Format                         : AVC
Format/Info                    : Advanced Video Codec
Format profile                 : [email protected]
Format settings, CABAC         : Yes
Format settings, ReFrames      : 1 frame
Codec ID                       : avc1
Codec ID/Info                  : Advanced Video Coding
Duration                       : 12mn 39s
Bit rate                       : 1 160 Kbps
Maximum bit rate               : 7 591 Kbps
Width                          : 1 280 pixels
Height                         : 720 pixels
Display aspect ratio           : 16:9
Frame rate mode                : Constant
Frame rate                     : 25.000 fps
Color space                    : YUV
Chroma subsampling             : 4:2:0
Bit depth                      : 8 bits
Scan type                      : Progressive
Bits/(Pixel*Frame)             : 0.050
Stream size                    : 105 MiB (86%)
Tagged date                    : UTC 2016-02-29 15:35:11
Audio
ID                             : 2
Format                         : AAC
Format/Info                    : Advanced Audio Codec
Format profile                 : LC
Codec ID                       : 40
Duration                       : 12mn 39s
Bit rate mode                  : Variable
Bit rate                       : 186 Kbps
Maximum bit rate               : 199 Kbps
Channel(s)                     : 2 channels
Channel positions              : Front: L R
Sampling rate                  : 48.0 KHz
Compression mode               : Lossy
Stream size                    : 16.8 MiB (14%)
Language                       : English
Encoded date                   : UTC 2016-02-29 15:35:11
Tagged date                    : UTC 2016-02-29 15:35:11


Последний раз редактировалось: maksimus_1712 (2016-04-12 13:13), всего редактировалось 5 раз(а)

Создавать темы 02-Мар-2016 13:50

[Профиль]  [ЛС] 

Азиз87

Стаж: 5 лет 1 месяц

Сообщений: 752

Симпатии: 143

Cогласно http://www.bilibili.com/bangumi/i/1700/ ну не существует HDTV версии.
2014г поэтому не прилеплен релиз.
При следующем обновлении лучше еще сделать приписку, что присутствует китайский хардсаб, однако в заголовке темы этого не стоит делать. Это относится к этому и другому релизу с Купидоновым Шоколадом.
Зачетный вынос мозга.

Создавать темы 02-Мар-2016 14:30

[Профиль]  [ЛС] 

SNIL

Стаж: 5 лет 11 месяцев

Сообщений: 2624

Симпатии: 341

Странная вешчЬ! Да еще стёб над Японскими анимками в конце)

Создавать темы 02-Мар-2016 20:35

[Профиль]  [ЛС] 

maksimus_1712 ®

Стаж: 4 года 4 месяца

Сообщений: 122

Симпатии: 68

Добавлены 2-4 Серии

Создавать темы 11-Мар-2016 07:35

[Профиль]  [ЛС] 

maksimus_1712 ®

Стаж: 4 года 4 месяца

Сообщений: 122

Симпатии: 68

Добавлена 5-6 Серия

Создавать темы 24-Мар-2016 11:55

[Профиль]  [ЛС] 

maksimus_1712 ®

Стаж: 4 года 4 месяца

Сообщений: 122

Симпатии: 68

Добавлена 7-8 Серия

Создавать темы 26-Мар-2016 19:53

[Профиль]  [ЛС] 

maksimus_1712 ®

Стаж: 4 года 4 месяца

Сообщений: 122

Симпатии: 68

Добавлена 9-10 Серия

Создавать темы 12-Апр-2016 13:14

[Профиль]  [ЛС] 

krocki

Стаж: 2 года 7 месяцев

Сообщений: 57

Симпатии: 1

maksimus_1712, Уже 5 серий вышло!!!!!!!!!!!!

Создавать темы 21-Авг-2016 04:26

[Профиль]  [ЛС] 
Показать сообщения:    
Ответить на тему

Текущее время: 11-Дек 12:22

Часовой пояс: UTC + 5



Вы не можете начинать темы
Вы не можете отвечать на сообщения
Вы не можете редактировать свои сообщения
Вы не можете удалять свои сообщения
Вы не можете голосовать в опросах
Вы не можете прикреплять файлы к сообщениям
Вы не можете скачивать файлы