Школа Монстров: Большой Кошмарный риф / Monster High: Great Scarrier Reef (Уильям Лау / William Lau) [2016, США, мультфильм, семейный, мюзикл, TVRip] (Dub)

Ответить на тему
 

Ravilya ®

Стаж: 2 года 3 месяца

Сообщений: 22

Симпатии: 33

-Школа Монстров: Большой Кошмарный риф / Monster High: Great Scarrier Reef-
Страна: США
Жанр: мультфильм, семейный, мюзикл
Год выпуска: 2016
Продолжительность: 01:08:49-Перевод: Профессиональный (дублированный)
Cубтитры: нет-Режиссер: Уильям Лау / William Lau-Описание: Лагуна Блю получает подводные права и приглашает подруг в заплыв на субмарине. Она хочет проверить, действительно ли у школьного бассейна нет дна, а в глубинах его таится много опасностей. В погоне за острыми впечатлениями подружки заплывают слишком глубоко и попадают на территорию Большого Кошмарного рифа.-С помощью волшебства дочери Посейдона — Поси Ри — девочки превращаются в русалок, напоминающих различных морских обитателей. Чтобы вернуться в школу, им придется побороть свои страхи и подружиться со злобным Кракеном. Лагуне же предстоит помириться с подругой детства Кала Мери.-Качество видео: TVRip
Формат видео: MPEG-TS
Видео: MPEG4 Video (H264) 785x576 (15:11) 25fps
Аудио: MPEG Audio 48000Hz stereo 192kbps-

MediaInfo

General
ID : 1 (0x1)
Complete name : E:\Films\Monster High. Great Scarrier Reef. (2016)_DVB by SLuMeP.ts
Format : MPEG-TS
File size : 1.37 GiB
Duration : 1h 8mn
Overall bit rate mode : Variable
Overall bit rate : 2 853 Kbps
Video
ID : 67 (0x43)
Menu ID : 1 (0x1)
Format : AVC
Format/Info : Advanced Video Codec
Format profile : [email protected]
Format settings, CABAC : Yes
Format settings, ReFrames : 3 frames
Format settings, GOP : M=4, N=28
Codec ID : 27
Duration : 1h 8mn
Bit rate : 2 518 Kbps
Width : 785 pixels
Height : 576 pixels
Display aspect ratio : 4:3
Frame rate : 25.000 fps
Standard : Component
Color space : YUV
Chroma subsampling : 4:2:0
Bit depth : 8 bits
Scan type : Interlaced
Scan order : Top Field First
Bits/(Pixel*Frame) : 0.243
Stream size : 1.21 GiB (88%)
Color primaries : BT.601 PAL
Transfer characteristics : BT.470 System B, BT.470 System G
Matrix coefficients : BT.601
Color range : Limited
Audio
ID : 68 (0x44)
Menu ID : 1 (0x1)
Format : MPEG Audio
Format version : Version 1
Format profile : Layer 2
Codec ID : 3
Duration : 1h 8mn
Bit rate mode : Constant
Bit rate : 192 Kbps
Channel(s) : 2 channels
Sampling rate : 48.0 KHz
Compression mode : Lossy
Delay relative to video : -80ms
Stream size : 94.5 MiB (7%)
Language : English

Скриншоты





Последний раз редактировалось: Ravilya (2016-03-03 20:00), всего редактировалось 1 раз

Создавать темы 02-Мар-2016 14:00

[Профиль]  [ЛС] 
Показать сообщения:    
Ответить на тему

Текущее время: 24-Авг 08:09

Часовой пояс: UTC + 5



Вы не можете начинать темы
Вы не можете отвечать на сообщения
Вы не можете редактировать свои сообщения
Вы не можете удалять свои сообщения
Вы не можете голосовать в опросах
Вы не можете прикреплять файлы к сообщениям
Вы не можете скачивать файлы