Элвин и бурундуки: Грандиозное бурундуключение / Alvin and the Chipmunks: The Road Chip (Уолт Бекер) [2015, США, Мультфильм, фэнтези, комедия, приключения, семейный, HDRip] [Чистый звук]

Ответить на тему
 

ruhal ®

Стаж: 2 года 4 месяца

Сообщений: 1182

Симпатии: 1836

- -Элвин и бурундуки: Грандиозное бурундуключение / Alvin and the Chipmunks: The Road Chip- Страна: США
Жанр: Мультфильм, фэнтези, комедия, приключения, семейный
Год выпуска: 2015
Продолжительность: 01:59:45-Перевод: дублированный [Чистый звук]
Cубтитры: нет-Режиссер: Уолт Бекер-В ролях: Джейсон Ли, Джастин Лонг, Мэттью Грей Гублер, Джесси МакКартни, Кимберли Уильямс,
Джош Грин, Тони Хейл, Белла Торн, Эдди Стиплз, Кристина Эпплгейт, Кейли Куоко-Суитинг, Анна Фэрис, Кит А. Болден,
Джошуа Микель, Джереми Рэй Тейлор, Майкл Сеньор, Зико Заки, Дженнифер Кулидж, Узо Адуба, Джесика Альберг-Описание: Бурундуки пойдут на всё, чтобы сохранить свою семью, даже на грандиозное бурундуключение по всей Америке!
Когда Бурундуки видят, что Дэйв берет с собой коробочку с кольцом в поездку в Майами,
они отчаянно пытаются помешать ему сделать предложение его девушке — из опасения,
что мачеха и сводный брат внесут перемены в их семейную идиллию.-Качество видео: HDRip
Формат видео: AVI
Видео: Xvid 720x384 23.976fps 1918kbps
Аудио: Dolby AC3 48000Hz stereo 192kbps
-

MediaInfo

General
Complete name : E:\Films\A.1.b.G.B.2015.D.HDRip.1400MB.avi
Format : AVI
Format/Info : Audio Video Interleave
File size : 1.37 GiB
Duration : 1h 32mn
Overall bit rate : 2 120 Kbps
Writing application : VirtualDubMod 1.5.10.3 | www.virtualdub-fr.org || (build 2550/release)
Writing library : VirtualDubMod build 2550/release
Video
ID : 0
Format : MPEG-4 Visual
Format profile : Advanced [email protected]
Format settings, BVOP : 2
Format settings, QPel : No
Format settings, GMC : No warppoints
Format settings, Matrix : Default (MPEG)
Codec ID : XVID
Codec ID/Hint : XviD
Duration : 1h 32mn
Bit rate : 1 919 Kbps
Width : 720 pixels
Height : 384 pixels
Display aspect ratio : 1.85:1
Frame rate : 23.976 fps
Color space : YUV
Chroma subsampling : 4:2:0
Bit depth : 8 bits
Scan type : Progressive
Compression mode : Lossy
Bits/(Pixel*Frame) : 0.289
Stream size : 1.24 GiB (90%)
Writing library : XviD 1.2.1 (UTC 2008-12-04)
Audio
ID : 1
Format : AC-3
Format/Info : Audio Coding 3
Mode extension : CM (complete main)
Format settings, Endianness : Big
Codec ID : 2000
Duration : 1h 32mn
Bit rate mode : Constant
Bit rate : 192 Kbps
Channel(s) : 2 channels
Channel positions : Front: L R
Sampling rate : 48.0 KHz
Bit depth : 16 bits
Compression mode : Lossy
Stream size : 127 MiB (9%)
Alignment : Split accross interleaves
Interleave, duration : 42 ms (1.00 video frame)
Interleave, preload duration : 500 ms

Скриншоты





Последний раз редактировалось: ruhal (2016-03-04 05:53), всего редактировалось 2 раз(а)

Создавать темы 02-Мар-2016 18:51

[Профиль]  [ЛС] 

ruhal ®

Стаж: 2 года 4 месяца

Сообщений: 1182

Симпатии: 1836

перекачайте торрент файл, залил чистый звук

Создавать темы 03-Мар-2016 20:04

[Профиль]  [ЛС] 
Показать сообщения:    
Ответить на тему

Текущее время: 19-Авг 23:50

Часовой пояс: UTC + 5



Вы не можете начинать темы
Вы не можете отвечать на сообщения
Вы не можете редактировать свои сообщения
Вы не можете удалять свои сообщения
Вы не можете голосовать в опросах
Вы не можете прикреплять файлы к сообщениям
Вы не можете скачивать файлы