Кто-то там поёт / Ko to tamo peva (Слободан Шиян) [1980, Югославия, трагикомедия, DVDRip] VO + Sub (Rus) + Original (Serb)

Ответить на тему
 

lotto ®

Стаж: 7 лет 7 месяцев

Сообщений: 221

Симпатии: 409

Кто-то там поёт / Ko to tamo peva-- Страна: Югославия
Жанр: трагикомедия
Год выпуска: 1980
Продолжительность: 01:23:00
Перевод: Одноголосый закадровый
Cубтитры: русские
Оригинальная аудиодорожка: сербский--Режиссер: Слободан Шиян
В ролях: Павел Вуйсич, Драган Николич, Данило "Бата" Стойкович, Александар Берчек, Неда Арнерич, Бора Тодорович--Описание: 5 апреля 1941 года в автобусе, отправляющемся в Белград, собралась очень замечательная компания…--Кинопоиск: 7.5
IMDB: 8.9

Премии и награды:
Пула: «Золотая арена» за главную мужскую роль - Александар Берчек,
Золотой венок газеты «Студио» - Слободан Шиян,
награда газеты "Младост" - Слободан Шиян
Цанес: Главная награда публики
Монреаль: Гран-при, приз экуменического жюри
Панама: Гран-при
Саламанка: Гран-при
Роттердам: Гран-при
Вевей: Специальная награда жюри
Майнхейм: Награда католического жюри

Дополнительная информация

В 1996 году Совет Академии киноискусства и науки Югославии (AFUN) признал ленту лучшей сербской картиной, снятой за 50 лет (в период с 1947 по 1995 годы)
Качество видео: DVDRip
Формат видео: AVI
Видео: Xvid 720x432 25fps 1982kbps
Аудио: MP3 44100Hz stereo 128kbps (русский, одноголосый)
Аудио 2: MP3 44100Hz stereo 128kbps (оригинал)
Формат субтитров: softsub (SRT)

MediaInfo

General
Complete name : Kto-to tam poet.xvid.APTXAYC.Fenixclub.dual.hardsongs.1.avi
Format : AVI
Format/Info : Audio Video Interleave
File size : 686 MiB
Duration : 42mn 28s
Overall bit rate mode : Variable
Overall bit rate : 2 260 Kbps
Writing application : VirtualDubMod 1.5.10.2 (build 2540/release)
Writing library : VirtualDubMod build 2540/release
Video
ID : 0
Format : MPEG-4 Visual
Format profile : Advanced [email protected]
Format settings, BVOP : 2
Format settings, QPel : No
Format settings, GMC : No warppoints
Format settings, Matrix : Default (H.263)
Muxing mode : Packed bitstream
Codec ID : XVID
Codec ID/Hint : XviD
Duration : 42mn 28s
Bit rate : 1 983 Kbps
Width : 720 pixels
Height : 432 pixels
Display aspect ratio : 5:3
Frame rate : 25.000 fps
Color space : YUV
Chroma subsampling : 4:2:0
Bit depth : 8 bits
Scan type : Progressive
Compression mode : Lossy
Bits/(Pixel*Frame) : 0.255
Stream size : 602 MiB (88%)
Writing library : XviD 1.1.2 (UTC 2006-11-01)
Audio #1
ID : 1
Format : MPEG Audio
Format version : Version 1
Format profile : Layer 3
Codec ID : 55
Codec ID/Hint : MP3
Duration : 42mn 28s
Bit rate mode : Constant
Bit rate : 128 Kbps
Channel(s) : 2 channels
Sampling rate : 44.1 KHz
Compression mode : Lossy
Stream size : 38.9 MiB (6%)
Alignment : Split accross interleaves
Interleave, duration : 40 ms (1.00 video frame)
Interleave, preload duration : 500 ms
Audio #2
ID : 2
Format : MPEG Audio
Format version : Version 1
Format profile : Layer 3
Mode : Joint stereo
Mode extension : MS Stereo
Codec ID : 55
Codec ID/Hint : MP3
Duration : 42mn 28s
Bit rate mode : Variable
Bit rate : 128 Kbps
Channel(s) : 2 channels
Sampling rate : 44.1 KHz
Compression mode : Lossy
Stream size : 40.1 MiB (6%)
Alignment : Aligned on interleaves
Interleave, duration : 26 ms (0.65 video frame)
Interleave, preload duration : 508 ms

Скриншот c названием фильма

Скриншоты





Создавать темы 03-Мар-2016 12:28

[Профиль]  [ЛС] 

evil-tashkenta

Стаж: 5 лет 7 месяцев

Сообщений: 17

хороший фильм) правда давно смотрел
зато недавно посмотрел балканский шпион и профессионал, не пожалел)

Создавать темы 03-Мар-2016 22:50

[Профиль]  [ЛС] 
Показать сообщения:    
Ответить на тему

Текущее время: 18-Авг 13:51

Часовой пояс: UTC + 5



Вы не можете начинать темы
Вы не можете отвечать на сообщения
Вы не можете редактировать свои сообщения
Вы не можете удалять свои сообщения
Вы не можете голосовать в опросах
Вы не можете прикреплять файлы к сообщениям
Вы не можете скачивать файлы