Барби и команда шпионов / Barbie: Spy Squad (Конрад Хелтен / Conrad Helten) [2016, США, приключения, мультфильм, TVRip] (Dub)

Ответить на тему
 

Ravilya ®

Стаж: 2 года 5 месяцев

Сообщений: 22

Симпатии: 33

Барби и команда шпионов / Barbie: Spy Squad
Страна: США
Жанр: приключения, мультфильм
Год выпуска: 2016
Продолжительность: 01:12:17
Перевод: Профессиональный (дублированный)
Cубтитры: нет
Режиссер: Конрад Хелтен / Conrad Helten
Описание: Барби и ее подруги становятся тайными агентами!
Барби, Тереза и Рене — грациозные гимнастки, которые все свое время посвящают сложным тренировкам и зрелищным выступлениям. Когда их выдающиеся гимнастические навыки замечает глава шпионского агентства, девушек привлекают к секретной операции по поимке ловкой воровки.
Благодаря отличной физической подготовке, командному духу, суперкостюмам и помощи роботов-питомцев, Барби и подружки смогут выполнить свою секретную миссию с блеском.
Качество видео: TVRip
Формат видео: MPEG-TS
Видео: MPEG4 Video (H264), [email protected] (4:3), анаморф, 25 fps, 2700 kbps
Аудио: MPEG Audio, 2 сh, 48 kHz, 192 kbps

MediaInfo

General
ID : 1 (0x1)
Complete name : G:\Барби и команда шпионов. (2016)_DVB by SLuMeP.ts
Format : MPEG-TS
File size : 1.52 GiB
Duration : 1h 12mn
Overall bit rate mode : Variable
Overall bit rate : 3 020 Kbps
Video
ID : 1081 (0x439)
Menu ID : 1080 (0x438)
Format : AVC
Format/Info : Advanced Video Codec
Format profile : [email protected]
Format settings, CABAC : Yes
Format settings, ReFrames : 4 frames
Format settings, GOP : M=4, N=28
Codec ID : 27
Duration : 1h 12mn
Bit rate : 2 677 Kbps
Width : 720 pixels
Height : 576 pixels
Display aspect ratio : 4:3
Frame rate : 25.000 fps
Standard : Component
Color space : YUV
Chroma subsampling : 4:2:0
Bit depth : 8 bits
Scan type : Interlaced
Scan order : Top Field First
Bits/(Pixel*Frame) : 0.258
Stream size : 1.35 GiB (89%)
Color primaries : BT.601 PAL
Transfer characteristics : BT.470 System B, BT.470 System G
Matrix coefficients : BT.601
Color range : Limited
Audio
ID : 1082 (0x43A)
Menu ID : 1080 (0x438)
Format : MPEG Audio
Format version : Version 1
Format profile : Layer 2
Codec ID : 3
Duration : 1h 12mn
Bit rate mode : Constant
Bit rate : 192 Kbps
Channel(s) : 2 channels
Sampling rate : 48.0 KHz
Compression mode : Lossy
Delay relative to video : -120ms
Stream size : 99.3 MiB (6%)
Language : Russian
Text
ID : 1083 (0x43B)-100
Menu ID : 1080 (0x438)
Format : Teletext
Language : Russian
Menu
ID : 1080 (0x438)
Menu ID : 1080 (0x438)
Duration : 1h 12mn
List : 1081 (0x439) (AVC) / 1082 (0x43A) (MPEG Audio, Russian) / 1083 (0x43B) ()
Language : / Russian

Скриншоты






Последний раз редактировалось: Ravilya (2016-03-03 20:24), всего редактировалось 1 раз

Создавать темы 03-Мар-2016 15:51

[Профиль]  [ЛС] 
Показать сообщения:    
Ответить на тему

Текущее время: 18-Окт 20:02

Часовой пояс: UTC + 5



Вы не можете начинать темы
Вы не можете отвечать на сообщения
Вы не можете редактировать свои сообщения
Вы не можете удалять свои сообщения
Вы не можете голосовать в опросах
Вы не можете прикреплять файлы к сообщениям
Вы не можете скачивать файлы