Кухня / Сезон: 6 / Серии: 1-20 из 20 (Дмитрий Дьяченко, Жора Крыжовников, Антон Федотов) [2016, Комедия, SATRip]

Страницы :  1, 2  След.

Ответить на тему
 

Sunnat1999 ®

Стаж: 4 года 9 месяцев

Сообщений: 756

Симпатии: 416

КухняСерии: 1-20 из 20--
Год выпуска: 2016
Производство: Россия
Жанр: Комедия
Продолжительность: ~ 00:25:00
Субтитры: нет-Режиссёр: Дмитрий Дьяченко, Жора Крыжовников, Антон Федотов-В ролях: Дмитрий Назаров, Марк Богатырев, Дмитрий Нагиев, Елена Подкаминская, Марина Могилевская, Ольга Кузьмина, Сергей Лавыгин, Жаныл Асанбекова, Никита Тарасов, Виктор Хориняк, Екатерина Кузнецова, Елена Чернявская, Юлия Такшина, Сергей Епишев, Михаил Тарабукин-Описание: Совсем недавно завершилась премьера долгожданного пятого сезона сериала. Но, как и следовало ожидать, интрига сохранилась даже после трогательного воссоединения Макса (Марк Богатырев) и Виктории (Елена Подкаминская). Сможет ли Макс сохранить семейные ценности, к которым пришлось идти так долго? Сумеет ли он подавить в себе окончательно любовь к авантюрам и безобидной лжи, которая всегда раскрывалась не в его пользу? Справится ли главный герой с возложенной на него ответственностью быть хорошим отцом и гениальным шеф-поваром знаменитого французского ресторана?-Доп. информация:
 
-Качество: SATRip
Формат: AVI
Видео кодек: XviD
Аудио кодек: MP3
Видео: XviD, ~ 1800 Кбит/с, 720x400
Аудио: MP3, 2 ch, 192 Кбит/с
-ВНИМАНИЕ! РАЗДАЧА ВЕДЁТСЯ ПУТЁМ ДОБАВЛЕНИЯ НОВЫХ СЕРИЙ!
ДОБАВЛЕНА 20 СЕРИЯ! ПОЖАЛУЙСТА ОБНОВИТЕ ТОРРЕНТ.

Как обновить торрент

Когда раздача ведётся путём добавления новых серий, при каждом добавлении создётся новый торрент. Чтобы начать докачку новой серии, пользователям необходимо сделать следующее:
(1) остановить скачивание,
(2) удалить старый торрент у себя из клиента (старые серии удалять не надо),
(3) скачать новый торрент и запустить его у себя в клиенте вместо старого, при этом указать клиенту путь в старую папку, куда и должно происходить скачивание новых серий.
Ваш клиент при этом должен произвести хеширование (проверку) старой папки (если не производит сам - помогите ему сделать это), и будет докачивать только те серии, которых у вас ещё нет. Старые серии при этом не удаляются, а продолжают раздаваться!
Eсли вы уже удалили старые серии, то предотвратить повторную закачку старых серий можно, отжав галочку в соответсвующих местах при запуске нового торрента. По возможности, желательно не удалять старые серии как можно дольше, чтобы релизёр не столько продолжал раздавать старые серии, а смог сконцентрироваться на новых.

MI

General
Complete name : \Кухня. Сезон 6. 2016 SATRip\Серия 01.avi
Format : AVI
Format/Info : Audio Video Interleave
File size : 386 MiB
Duration : 26mn 52s
Overall bit rate : 2 006 Kbps
Writing application : VirtualDubMod 1.5.10.3 (build 2550/release)
Writing library : VirtualDubMod build 2550/release
Video
ID : 0
Format : MPEG-4 Visual
Format profile : Advanced [email protected]
Format settings, BVOP : 2
Format settings, QPel : No
Format settings, GMC : No warppoints
Format settings, Matrix : Default (MPEG)
Codec ID : XVID
Codec ID/Hint : XviD
Duration : 26mn 52s
Bit rate : 1 805 Kbps
Width : 720 pixels
Height : 400 pixels
Display aspect ratio : 16:9
Frame rate : 25.000 fps
Color space : YUV
Chroma subsampling : 4:2:0
Bit depth : 8 bits
Scan type : Progressive
Compression mode : Lossy
Bits/(Pixel*Frame) : 0.251
Stream size : 347 MiB (90%)
Writing library : XviD 73
Audio
ID : 1
Format : MPEG Audio
Format version : Version 1
Format profile : Layer 3
Mode : Joint stereo
Codec ID : 55
Codec ID/Hint : MP3
Duration : 26mn 52s
Bit rate mode : Constant
Bit rate : 192 Kbps
Channel(s) : 2 channels
Sampling rate : 48.0 KHz
Compression mode : Lossy
Stream size : 36.9 MiB (10%)
Alignment : Split accross interleaves
Interleave, duration : 40 ms (1.00 video frame)
Interleave, preload duratio : 500 ms
Скриншоты:


Последний раз редактировалось: Sunnat1999 (2016-04-21 22:54), всего редактировалось 14 раз(а)

Создавать темы 03-Мар-2016 18:21

[Профиль]  [ЛС] 

Sunnat1999 ®

Стаж: 4 года 9 месяцев

Сообщений: 756

Симпатии: 416

ДОБАВЛЕНА 5 СЕРИЯ! ПОЖАЛУЙСТА ОБНОВИТЕ ТОРРЕНТ.

Создавать темы 03-Мар-2016 18:21

[Профиль]  [ЛС] 

Sunnat1999 ®

Стаж: 4 года 9 месяцев

Сообщений: 756

Симпатии: 416

ДОБАВЛЕНА 6 СЕРИЯ! ПОЖАЛУЙСТА ОБНОВИТЕ ТОРРЕНТ.

Создавать темы 09-Мар-2016 17:17

[Профиль]  [ЛС] 

Sunnat1999 ®

Стаж: 4 года 9 месяцев

Сообщений: 756

Симпатии: 416

ДОБАВЛЕНА 7 СЕРИЯ! ПОЖАЛУЙСТА ОБНОВИТЕ ТОРРЕНТ.

Создавать темы 10-Мар-2016 06:13

[Профиль]  [ЛС] 

Sunnat1999 ®

Стаж: 4 года 9 месяцев

Сообщений: 756

Симпатии: 416

ДОБАВЛЕНА 8 СЕРИЯ! ПОЖАЛУЙСТА ОБНОВИТЕ ТОРРЕНТ.

Создавать темы 11-Мар-2016 08:28

[Профиль]  [ЛС] 

Sunnat1999 ®

Стаж: 4 года 9 месяцев

Сообщений: 756

Симпатии: 416

ДОБАВЛЕНА 9 СЕРИЯ! ПОЖАЛУЙСТА ОБНОВИТЕ ТОРРЕНТ.

Создавать темы 14-Мар-2016 17:38

[Профиль]  [ЛС] 

Sunnat1999 ®

Стаж: 4 года 9 месяцев

Сообщений: 756

Симпатии: 416

ДОБАВЛЕНА 10 СЕРИЯ! ПОЖАЛУЙСТА ОБНОВИТЕ ТОРРЕНТ.

Создавать темы 15-Мар-2016 20:43

[Профиль]  [ЛС] 

Sunnat1999 ®

Стаж: 4 года 9 месяцев

Сообщений: 756

Симпатии: 416

ДОБАВЛЕНА 11 СЕРИЯ! ПОЖАЛУЙСТА ОБНОВИТЕ ТОРРЕНТ.

Создавать темы 16-Мар-2016 17:31

[Профиль]  [ЛС] 

Sunnat1999 ®

Стаж: 4 года 9 месяцев

Сообщений: 756

Симпатии: 416

ДОБАВЛЕНА 12 СЕРИЯ! ПОЖАЛУЙСТА ОБНОВИТЕ ТОРРЕНТ.

Создавать темы 17-Мар-2016 19:11

[Профиль]  [ЛС] 

Sunnat1999 ®

Стаж: 4 года 9 месяцев

Сообщений: 756

Симпатии: 416

ДОБАВЛЕНА 16 СЕРИЯ! ПОЖАЛУЙСТА ОБНОВИТЕ ТОРРЕНТ.

Создавать темы 24-Мар-2016 17:44

[Профиль]  [ЛС] 

Sunnat1999 ®

Стаж: 4 года 9 месяцев

Сообщений: 756

Симпатии: 416

ДОБАВЛЕНА 17 СЕРИЯ! ПОЖАЛУЙСТА ОБНОВИТЕ ТОРРЕНТ.

Создавать темы 28-Мар-2016 17:14

[Профиль]  [ЛС] 

Sunnat1999 ®

Стаж: 4 года 9 месяцев

Сообщений: 756

Симпатии: 416

ДОБАВЛЕНА 18 СЕРИЯ! ПОЖАЛУЙСТА ОБНОВИТЕ ТОРРЕНТ.

Создавать темы 29-Мар-2016 17:44

[Профиль]  [ЛС] 

Sunnat1999 ®

Стаж: 4 года 9 месяцев

Сообщений: 756

Симпатии: 416

ДОБАВЛЕНА 19 СЕРИЯ! ПОЖАЛУЙСТА ОБНОВИТЕ ТОРРЕНТ.

Создавать темы 30-Мар-2016 18:27

[Профиль]  [ЛС] 

Sunnat1999 ®

Стаж: 4 года 9 месяцев

Сообщений: 756

Симпатии: 416

ДОБАВЛЕНА 20 СЕРИЯ! ПОЖАЛУЙСТА ОБНОВИТЕ ТОРРЕНТ.
КОНЕЦ СЕЗОНА!

Создавать темы 31-Мар-2016 17:42

[Профиль]  [ЛС] 

lavr

Стаж: 4 года 6 месяцев

Сообщений: 2

скорости дайте друзья

Создавать темы 04-Апр-2016 20:43

[Профиль]  [ЛС] 
Показать сообщения:    
Ответить на тему

Текущее время: 17-Дек 20:49

Часовой пояс: UTC + 5



Вы не можете начинать темы
Вы не можете отвечать на сообщения
Вы не можете редактировать свои сообщения
Вы не можете удалять свои сообщения
Вы не можете голосовать в опросах
Вы не можете прикреплять файлы к сообщениям
Вы не можете скачивать файлы