Мэнни Пакьяо vs Мигель Котто / Manny Pacquiao v Miguel Cotto (НТВ+) [2009, США, Бокс, HDTVRip]

Ответить на тему
 

virus-leo.uz ®

Стаж: 1 год 10 месяцев

Сообщений: 14

Симпатии: 7

-Мэнни Пакьяо vs Мигель Котто- Страна: США
Жанр: Бокс
Год выпуска: 2009
Продолжительность: 48:11-Перевод: Профессиональный (дублированный) Доп. инфо о переводе нтв
Cубтитры: нет
Режиссер: НТВ+-В ролях: Мэнни Пакьяо - Мигель Котто-Описание: 14 ноября 2009г. США, Лас-Вегас, MGM Гранд.
Бой за звание чемпиона мира в полусреднем весе по версии WBO, а также за «бриллиантовый» пояс WBC, который Всемирный боксерский совет решил разыграть в этом поединке.-Качество видео: HDTVRip
Формат видео: MP4
Видео: 480x360(4:3), 25 fps, Н.264, 629 Кбит/сек, 0.46bit/pixel
Аудио: 44,1 КГц, AAC, stereo, 96,0 Кбит/сек
-

MediaInfo

Общее
Полное имя : D:\Manny Pacquiao v Miguel Cotto Won TKO 12 WBO Welterweight.mp4
Формат : MPEG-4
Профиль формата : Base Media / Version 2
Идентификатор кодека : mp42 (isom/mp42)
Размер файла : 251 Мбайт
Продолжительность : 48 м.
Режим общего битрейта : Переменный
Общий поток : 727 Кбит/сек
Дата кодирования : UTC 2015-04-21 10:16:36
Дата пометки : UTC 2015-04-21 10:16:36
gsst : 0
gstd : 2892021
gssd : B4A7D6ECA
gshh : r10---sn-n8v7sn76.googlevideo.com
Видео
Идентификатор : 1
Формат : AVC
Формат/Информация : Advanced Video Codec
Профиль формата : [email protected]
Параметр CABAC формата : Нет
Параметр ReFrames формата : 1 кадр
Идентификатор кодека : avc1
Идентификатор кодека/Информация : Advanced Video Coding
Продолжительность : 48 м.
Битрейт : 629 Кбит/сек
Максимальный битрейт : 1241 Кбит/сек
Ширина : 480 пикселей
Высота : 360 пикселей
Соотношение сторон : 4:3
Режим частоты кадров : Постоянный
Частота кадров : 25,000 кадров/сек
Цветовое пространство : YUV
Субдискретизация насыщенности : 4:2:0
Битовая глубина : 8 бит
Тип развёртки : Прогрессивная
Бит/(Пиксели*Кадры) : 0.146
Размер потока : 217 Мбайт (86%)
Дата кодирования : UTC 1970-01-01 00:00:00
Дата пометки : UTC 2015-04-21 10:17:08
Аудио
Идентификатор : 2
Формат : AAC
Формат/Информация : Advanced Audio Codec
Профиль формата : LC
Идентификатор кодека : 40
Продолжительность : 48 м.
Вид битрейта : Переменный
Битрейт : 96,0 Кбит/сек
Максимальный битрейт : 104 Кбит/сек
Каналы : 2 канала
Расположение каналов : Front: L R
Частота : 44,1 КГц
Частота кадров : 43,066 кадра/сек (1024 spf)
Метод сжатия : С потерями
Размер потока
: 33,1 Мбайт (13%)
Заголовок : IsoMedia File Produced by Google, 5-11-2011
Дата кодирования : UTC 2015-04-21 10:16:57
Дата пометки : UTC 2015-04-21 10:17:08

Скриншоты





Последний раз редактировалось: virus-leo.uz (2016-03-05 06:55), всего редактировалось 8 раз(а)

Создавать темы 04-Мар-2016 22:37

[Профиль]  [ЛС] 

ruhal

Стаж: 2 года 7 месяцев

Сообщений: 1181

Симпатии: 1836

Тех. Данные не совпадают с MediaInfo.
Скриншоты залейте оригинального размера и в виде картинок!
Исправляйте!

Создавать темы 05-Мар-2016 06:00

[Профиль]  [ЛС] 
Показать сообщения:    
Ответить на тему

Текущее время: 20-Ноя 01:00

Часовой пояс: UTC + 5



Вы не можете начинать темы
Вы не можете отвечать на сообщения
Вы не можете редактировать свои сообщения
Вы не можете удалять свои сообщения
Вы не можете голосовать в опросах
Вы не можете прикреплять файлы к сообщениям
Вы не можете скачивать файлы