Taylor Swift - The 1989 World Tour [2015, Sydney, Australia, Pop, Country, HDRip]

Ответить на тему
 

dlyatas-ix ®

Стаж: 5 лет 2 месяца

Сообщений: 9


Taylor Swift - The 1989 World Tour
Страна: Sydney, Australia
Жанр: Pop, Country
Год выпуска: 2015
Продолжительность: 02:11:54.881 (237209 frames)
Доп. информация: The 1989 World Tour — четвёртый концертный тур американской певицы Тейлор Свифт в поддержку её пятого студийного альбома 1989 (2014).
Шоу транслировалось на портале Apple Music. Сидней, Австралия - 28 ноября 2015 года.
Качество видео: HDRip
Формат видео: AVI
Видео: 1280x720 (1.78:1), 29.970 fps, XviD MPEG-4 ~2845 kbps avg, 0.10 bit/pixel
Аудио: 48 kHz, AC3 Dolby Digital, 3/2 (L,C,R,l,r) + LFE ch, ~384 kbps

MediaInfo

General
Complete name : Taylor.Swift.The.1989.World.Tour.720p.WEBRiP.XVID.AC3-REQUEST.avi
Format : AVI
Format/Info : Audio Video Interleave
Format profile : OpenDML
File size : 2.98 GiB
Duration : 2h 11mn
Overall bit rate : 3 238 Kbps
Writing application : VirtualDubMod 1.5.10.2 (build 2540/release)
Writing library : VirtualDubMod build 2540/release
Video
ID : 0
Format : MPEG-4 Visual
Format profile : Advanced [email protected]
Format settings, BVOP : 2
Format settings, QPel : No
Format settings, GMC : No warppoints
Format settings, Matrix : Default (H.263)
Muxing mode : Packed bitstream
Codec ID : XVID
Codec ID/Hint : XviD
Duration : 2h 11mn
Bit rate : 2 841 Kbps
Width : 1 280 pixels
Height : 720 pixels
Display aspect ratio : 16:9
Frame rate : 29.970 (29970/1000) fps
Color space : YUV
Chroma subsampling : 4:2:0
Bit depth : 8 bits
Scan type : Progressive
Compression mode : Lossy
Bits/(Pixel*Frame) : 0.103
Stream size : 2.62 GiB (88%)
Writing library : XviD 1.2.1 (UTC 2008-12-04)
Audio
ID : 1
Format : AC-3
Format/Info : Audio Coding 3
Mode extension : CM (complete main)
Format settings, Endianness : Big
Codec ID : 2000
Duration : 2h 11mn
Bit rate mode : Constant
Bit rate : 384 Kbps
Channel(s) : 6 channels
Channel positions : Front: L C R, Side: L R, LFE
Sampling rate : 48.0 KHz
Frame rate : 31.250 fps (1536 spf)
Compression mode : Lossy
Stream size : 362 MiB (12%)
Alignment : Split accross interleaves
Interleave, duration : 33 ms (1.00 video frame)
Interleave, preload duration : 500 ms

Скриншоты




_________________
Подпись отключена за нарушение правил форума

Создавать темы 05-Мар-2016 13:05

[Профиль]  [ЛС] 
Показать сообщения:    
Ответить на тему

Текущее время: 22-Ноя 06:53

Часовой пояс: UTC + 5



Вы не можете начинать темы
Вы не можете отвечать на сообщения
Вы не можете редактировать свои сообщения
Вы не можете удалять свои сообщения
Вы не можете голосовать в опросах
Вы не можете прикреплять файлы к сообщениям
Вы не можете скачивать файлы