Город в котором пропал лишь я / Boku dake ga Inai Machi (Ито Томохико) [TV] [12 из 12] [RUS] [AniDub|MVO] [2016, сверхъестественное, драма, психологический, мистика, HDTVRip 720p]

Ответить на тему
 

Choris ®

Стаж: 2 года 6 месяцев

Сообщений: 61

Симпатии: 54

--Год выпуска: 2016
Страна: Япония
Жанр: сверхъестественное, драма, психологический, мистика
Тип: TV
Продолжительность: 12 эп. по 25 мин.--Студия:
Режиссер: Ито Томохико--Описание:
    Фужинума Сатору — целеустремленный мангака, страдающий от того, что не может выразить себя в своих работах. Именно из-за этого недостатка большинство его работ отклоняются редакторами. Кроме этого, Фуджинума обладает сверхъестественным даром замечать мелочи, что заставляет его помогать людям…--Дополнительная информация: AniDB||WA||MAL--Озвучивание: BalFor, Trina_D, Nika Lenina
Перевод: Jeka
Тайминг и работа со звуком: Sheeze--Качество: HDTVRIp
Формат: Mp4
Видео: AVC, 1280x720, 1628 Кбит/сек, 23,976 кадра/сек
Аудио: AAC, 48,0 КГц, 183 Кбит/сек, 2 канала

Media Info

[code]Общее
Полное имя : D:\Root\anime\[AniDub]_Boku_dake_ga_Inai_Machi_[720p]_[MVO]\[AniDub]_Boku_dake_ga_Inai_Machi_[01]_[720p_x264_Aac]_[MVO].mp4
Формат : MPEG-4
Профиль формата : Base Media
Идентификатор кодека : isom (isom)
Размер файла : 299 Мбайт
Продолжительность : 23 м.
Режим общего битрейта : Переменный
Общий поток : 1809 Кбит/сек
Дата кодирования : UTC 2016-01-07 18:46:15
Дата пометки : UTC 2016-01-07 18:46:15
Программа кодирования : Yamb 2.1.0.0 [http://yamb.unite-video.com]
Видео
Идентификатор : 1
Формат : AVC
Формат/Информация : Advanced Video Codec
Профиль формата : [email protected]
Параметр CABAC формата : Да
Параметр ReFrames формата : 4 кадра
Идентификатор кодека : avc1
Идентификатор кодека/Информация : Advanced Video Coding
Продолжительность : 22 м.
Битрейт : 1628 Кбит/сек
Максимальный битрейт : 18,2 Мбит/сек
Ширина : 1280 пикселей
Высота : 720 пикселей
Соотношение сторон : 16:9
Режим частоты кадров : Постоянный
Частота кадров : 23,976 (24000/1001) кадра/сек
Цветовое пространство : YUV
Субдискретизация насыщенности : 4:2:0
Битовая глубина : 8 бит
Тип развёртки : Прогрессивная
Бит/(Пиксели*Кадры) : 0.074
Размер потока : 268 Мбайт (90%)
Заголовок : 264
Библиотека кодирования : x264 core 129 r2245+729M 1a52e03
Настройки программы : cabac=1 / ref=4 / deblock=1:1:-1 / analyse=0x3:0x113 / me=umh / subme=9 / psy=1 / fade_compensate=0.00 / psy_rd=1.00:0.00 / mixed_ref=1 / me_range=24 / chroma_me=1 / trellis=2 / 8x8dct=1 / cqm=0 / deadzone=21,11 / fast_pskip=1 / chroma_qp_offset=-2 / threads=8 / lookahead_threads=1 / sliced_threads=0 / nr=0 / decimate=1 / interlaced=0 / bluray_compat=0 / constrained_intra=0 / fgo=0 / bframes=9 / b_pyramid=2 / b_adapt=2 / b_bias=0 / direct=1 / weightb=1 / open_gop=0 / weightp=2 / keyint=240 / keyint_min=24 / scenecut=40 / intra_refresh=0 / rc=crf / mbtree=0 / crf=18.5 / qcomp=0.72 / qpmin=0 / qpmax=69 / qpstep=4 / ip_ratio=1.40 / pb_ratio=1.30 / aq=1:0.85
Дата кодирования : UTC 2016-01-07 21:36:24
Дата пометки : UTC 2016-01-07 18:46:30
Цветовой диапазон : Limited
Основные цвета : BT.709
Характеристики трансфера : BT.709
Коэффициенты матрицы : BT.709
Аудио
Идентификатор : 2
Формат : AAC
Формат/Информация : Advanced Audio Codec
Профиль формата : LC
Идентификатор кодека : 40
Продолжительность : 23 м.
Вид битрейта : Переменный
Битрейт : 183 Кбит/сек
Максимальный битрейт : 290 Кбит/сек
Каналы : 2 канала
Расположение каналов : Front: L R
Частота : 48,0 КГц
Частота кадров : 46,875 кадров/сек (1024 spf)
Метод сжатия : С потерями
Размер потока : 30,3 Мбайт (10%)
Заголовок : ?????????? ????? Apple
Язык : English
Дата кодирования : UTC 2016-01-07 18:46:27
Дата пометки : UTC 2016-01-07 18:46:30

Скринщоты



Последний раз редактировалось: Choris (2016-04-12 08:35), всего редактировалось 5 раз(а)

Создавать темы 05-Мар-2016 17:32

[Профиль]  [ЛС] 

Alex_38

Стаж: 5 лет 9 месяцев

Сообщений: 336

Симпатии: 37

Город в котором пропал лишь я / Boku dake ga Inai Machi (Ито Томохико) [TV] [07 из 12] [RUS] [AniDub|MVO] [2016, сверхъестественное, драма, психологический, мистика, HDTVRip 720p]
Продолжительность: 11 эп. по 25 мин.
Второе надоб исправить)

Создавать темы 05-Мар-2016 20:46

[Профиль]  [ЛС] 

Fox_M

Стаж: 5 лет 1 месяц

Сообщений: 110

Симпатии: 35

Помогу с раздачей, правда скорость не очень.

Создавать темы 05-Мар-2016 21:39

[Профиль]  [ЛС] 

Fox_M

Стаж: 5 лет 1 месяц

Сообщений: 110

Симпатии: 35

Концовка получилась хорошей) эх... и почему выпускают так мало аниме таких как это((

Создавать темы 29-Мар-2016 22:19

[Профиль]  [ЛС] 

Issey

Стаж: 3 года 11 месяцев

Сообщений: 15

Спасибо за релиз)
Когда обновление ?

Создавать темы 30-Мар-2016 20:55

[Профиль]  [ЛС] 

Choris ®

Стаж: 2 года 6 месяцев

Сообщений: 61

Симпатии: 54

Issey, скоро. просто релиз удалился с компа заново скачиваю наднях будет

Создавать темы 31-Мар-2016 00:06

[Профиль]  [ЛС] 

Choris ®

Стаж: 2 года 6 месяцев

Сообщений: 61

Симпатии: 54

12 серия [КОНЕЦ]

Создавать темы 12-Апр-2016 08:37

[Профиль]  [ЛС] 

Топик был перенесен из форума Аниме онгоинги в форум HD, HDTVRip
[email protected]

Создавать темы 13-Апр-2016 07:35

 
Показать сообщения:    
Ответить на тему

Текущее время: 16-Дек 18:11

Часовой пояс: UTC + 5



Вы не можете начинать темы
Вы не можете отвечать на сообщения
Вы не можете редактировать свои сообщения
Вы не можете удалять свои сообщения
Вы не можете голосовать в опросах
Вы не можете прикреплять файлы к сообщениям
Вы не можете скачивать файлы