Безродные звери / Beasts of No Nation (Кэри Фукунага / Cary Joji Fukunaga) [2015, США, драма, военный, WEB-DLRip] AVO (Юрий Сербин)

Ответить на тему
 

kat222000 ®

Стаж: 6 лет 7 месяцев

Сообщений: 608

Симпатии: 1055

Безродные звери / Beasts of No Nation«Child. Captive. Killer» -Страна: США
Жанр: драма, военный
Год выпуска: 2015
Продолжительность: 02:16:32
Перевод: Авторский (одноголосый, закадровый) [Юрий Сербин]- Режиссер: Кэри Фукунага / Cary Joji Fukunaga- В ролях: Абрам Атта (Agu), Идрис Эльба (Commandant), Эммануэль Аффадзи (Dike), Рики Аделайтор (Village Constable), Эндрю Эдот (Ecomod 2nd Lieutenant), Вера Ниаркоа Антви (Little Sister), Ама К. Абебрезе (Mother), Кобина Амисса-Сэм (Father), Френсис Уэдди (Big Brother), Фред Нии Амуджи (Pastor), Джон Артур (Angry Bush Taxi Driver), Грэйс Норти (Old Witch Woman)-
Фильм расскажет о приключениях юноши по имени Агу, которого гражданская война на западе Африки принуждает вступить в команду наемников. Судьбе мало того, что парень пережил гибель отца и исчезновение сестры и матери, она погружает его в жизнь, полную насилия и жестокости.- -Возраст: зрителям, достигшим 18 лет-Рейтинг MPAA: лицам до 17 лет обязательно присутствие взрослого- Качество видео: WEB-DLRip
Формат видео: AVI
Видео кодек: XviD
Аудио кодек: AC3
Видео: 720x304 (2.37:1), 23.976 fps, XviD build 73 ~1331 kbps avg, 0.25 bit/pixel
Аудио: 48 kHz, AC3 Dolby Digital, 2/0 (L,R) ch, ~192 kbps avg (Русский | Юрий Сербин)-

〤 ОтчетМедиаИнфо 〤

General
Format : AVI
Format/Info : Audio Video Interleave
File size : 1.46 GiB
Duration : 2h 16mn
Overall bit rate : 1 532 Kbps
Movie name : Bezrodnye.Zveri.2015.Serbin.WEB-DLRip.1.46Gb
Director : Twi7ter
Genre : Drama
Writing application : VirtualDubMod 1.5.10.3 (build 2550/release)
Original source form/Name : Movie
Video
ID : 0
Format : MPEG-4 Visual
Format profile : Advanced [email protected]
Format settings, BVOP : 2
Format settings, QPel : No
Format settings, GMC : No warppoints
Format settings, Matrix : Custom
Codec ID : XVID
Codec ID/Hint : XviD
Duration : 2h 16mn
Bit rate : 1 331 Kbps
Width : 720 pixels
Height : 304 pixels
Display aspect ratio : 2.35:1
Frame rate : 23.976 fps
Color space : YUV
Chroma subsampling : 4:2:0
Bit depth : 8 bits
Scan type : Progressive
Compression mode : Lossy
Bits/(Pixel*Frame) : 0.254
Stream size : 1.27 GiB (87%)
Writing library : XviD 73
Audio
ID : 1
Format : AC-3
Format/Info : Audio Coding 3
Mode extension : CM (complete main)
Format settings, Endianness : Big
Codec ID : 2000
Duration : 2h 16mn
Bit rate mode : Constant
Bit rate : 192 Kbps
Channel(s) : 2 channels
Channel positions : Front: L R
Sampling rate : 48.0 KHz
Compression mode : Lossy
Stream size : 188 MiB (13%)
Alignment : Split accross interleaves
Interleave, duration : 42 ms (1.00 video frame)
Interleave, preload duratio : 500 ms
-

〤 Скриншоты 〤



- © Оформление by kat222000

Создавать темы 06-Мар-2016 23:30

[Профиль]  [ЛС] 
Показать сообщения:    
Ответить на тему

Текущее время: 18-Ноя 11:42

Часовой пояс: UTC + 5



Вы не можете начинать темы
Вы не можете отвечать на сообщения
Вы не можете редактировать свои сообщения
Вы не можете удалять свои сообщения
Вы не можете голосовать в опросах
Вы не можете прикреплять файлы к сообщениям
Вы не можете скачивать файлы