Омерзительная восьмерка / The Hateful Eight (Квентин Тарантино / Quentin Tarantino) [2015, США, триллер, драма, криминал, детектив, вестерн, HDRip] Dub (Line) + VO (Вставки)

Ответить на тему
 

kat222000 ®

Стаж: 6 лет 8 месяцев

Сообщений: 608

Симпатии: 1055

Омерзительная восьмерка / The Hateful Eight«Без хорошей причины сюда не лезут» -Страна: США
Жанр: триллер, драма, криминал, детектив, вестерн
Год выпуска: 2015
Продолжительность: 02:47:44
Перевод: Профессиональный (полное дублирование) [Line] + Диалоги на испанском - озвучены Д.Есаревым- Режиссер: Квентин Тарантино / Quentin Tarantino- В ролях: Курт Рассел (John Ruth), Сэмюэл Л. Джексон (Major Marquis Warren), Тим Рот (Oswaldo Mobray), Майкл Мэдсен (Joe Gage), Дженнифер Джейсон Ли (Daisy Domergue), Уолтон Гоггинс (Sheriff Chris Mannix), Демиан Бишир (Bob), Брюс Дерн (General Sandy Smithers), Джеймс Паркс (O.B Jackson), Дэна Гурье (Minnie Mink), Зои Белл (Six-Horse Judy), Ли Хорсли (Ed)-
США после Гражданской войны. Легендарный охотник за головами Джон Рут по кличке Вешатель конвоирует заключенную. По пути к ним прибиваются еще несколько путешественников. Снежная буря вынуждает компанию искать укрытие в лавке на отшибе, где уже расположилось весьма пестрое общество: генерал конфедератов, мексиканец, ковбой... И один из них - не тот, за кого себя выдает.- -Возраст: зрителям, достигшим 18 лет-Рейтинг MPAA: лицам до 17 лет обязательно присутствие взрослого- Качество видео: HDRip
Формат видео: AVI
Видео кодек: XviD
Аудио кодек: AC3
Видео: 704x256 (2.75:1), 23.976 fps, XviD build 73 ~1478 kbps avg, 0.34 bit/pixel
Аудио 1: 48 kHz, AC3 Dolby Digital, 2/0 (L,R) ch, ~192 kbps (Русский | Dub (Line))
Аудио 2: 48 kHz, AC3 Dolby Digital, 2/0 (L,R) ch, ~192 kbps (English | Original)-

〤 ОтчетМедиаИнфо 〤

General
Format : AVI
Format/Info : Audio Video Interleave
File size : 2.19 GiB
Duration : 2h 47mn
Overall bit rate : 1 869 Kbps
Movie name : Omerzitelnaja.Vosmerka.2015.D.HDRip.2.18Gb_by_Twi7ter
Genre : Thriller/Drama/Crime/Western
Writing application : VirtualDubMod 1.5.10.3 (build 2550/release)
Original source form/Name : Movie
Video
ID : 0
Format : MPEG-4 Visual
Format profile : Advanced [email protected]
Format settings, BVOP : 2
Format settings, QPel : No
Format settings, GMC : No warppoints
Format settings, Matrix : Custom
Codec ID : XVID
Codec ID/Hint : XviD
Duration : 2h 47mn
Bit rate : 1 400 Kbps
Width : 704 pixels
Height : 256 pixels
Display aspect ratio : 2.750
Frame rate : 23.976 fps
Color space : YUV
Chroma subsampling : 4:2:0
Bit depth : 8 bits
Scan type : Progressive
Compression mode : Lossy
Bits/(Pixel*Frame) : 0.324
Stream size : 1.64 GiB (75%)
Writing library : XviD 73
Audio #1
ID : 1
Format : AC-3
Format/Info : Audio Coding 3
Mode extension : CM (complete main)
Format settings, Endianness : Big
Codec ID : 2000
Duration : 2h 47mn
Bit rate mode : Constant
Bit rate : 192 Kbps
Channel(s) : 2 channels
Channel positions : Front: L R
Sampling rate : 48.0 KHz
Compression mode : Lossy
Stream size : 230 MiB (10%)
Alignment : Split accross interleaves
Audio #2
ID : 2
Format : AC-3
Format/Info : Audio Coding 3
Mode extension : CM (complete main)
Format settings, Endianness : Big
Codec ID : 2000
Duration : 2h 47mn
Bit rate mode : Constant
Bit rate : 192 Kbps
Channel(s) : 2 channels
Channel positions : Front: L R
Sampling rate : 48.0 KHz
Compression mode : Lossy
Stream size : 230 MiB (10%)
Alignment : Split accross interleaves
-

〤 Скриншоты 〤



- - © Оформление by kat222000

Создавать темы 07-Мар-2016 00:22

[Профиль]  [ЛС] 

Ромка

Стаж: 2 года 1 месяц

Сообщений: 20

Симпатии: 2

Пол фильма посмотрел, только потом подумал, что трата времени не стоит!

Создавать темы 07-Мар-2016 18:08

[Профиль]  [ЛС] 

kladei

Стаж: 7 лет

Сообщений: 9

Симпатии: 1

Зачетный фильм, Тарантино в своём духе!!!

Создавать темы 12-Мар-2016 20:50

[Профиль]  [ЛС] 

Dracula

Стаж: 7 лет 6 месяцев

Сообщений: 5

Симпатии: 1

О даа! Тарантино как всегда!!! Оскара сюда!

Создавать темы 12-Мар-2016 23:21

[Профиль]  [ЛС] 

TimaK

Стаж: 6 лет 7 месяцев

Сообщений: 129

Симпатии: 23

969188Пол фильма посмотрел, только потом подумал, что трата времени не стоит!
сразу ясно что ты малокасос который любит индийские фильмы... fp

Создавать темы 05-Июл-2016 21:35

[Профиль]  [ЛС] 
Показать сообщения:    
Ответить на тему

Текущее время: 17-Дек 03:16

Часовой пояс: UTC + 5



Вы не можете начинать темы
Вы не можете отвечать на сообщения
Вы не можете редактировать свои сообщения
Вы не можете удалять свои сообщения
Вы не можете голосовать в опросах
Вы не можете прикреплять файлы к сообщениям
Вы не можете скачивать файлы