Воры / Ladrones (Джо Менендес / Joe Menendez) [2015, США, комедия, WEB-DL 1080p] (DVO : Без рекламы) (Sub Eng + Original Spa)

Ответить на тему
 

igor1968 ®

Стаж: 5 лет 6 месяцев

Сообщений: 366

Симпатии: 197

Воры / Ladrones Страна:
Жанр: комедия
Год выпуска: 2015
Продолжительность: 01:37:19
Перевод: Любительский (двухголосый закадровый)
Доп. инфо о переводе: Без рекламы
Cубтитры: английские
Оригинальная аудиодорожка: испанский
Режиссер: Джо Менендес / Joe Menendez
В ролях: Фернандо Колунга, Эдуардо Яньес, Мигель Варони, Джессика Линдси, Франк Перосо, Нашла Богарт, Оскар Торрес, Эвелина Родригес, Кристина Рольдо, Вадир Дербес
Легендарный вор Алехандро Толедо вновь берется за дело с новым напарником. Его цель – вернуть землю, украденную у селян безжалостным семейством жуликов.
Доп. информация: Примечание: Без рекламы-
Качество видео: WEB-DL 1080p
Формат видео: MKV
Видео: 3228 Kb/s, 1912x796
Аудио: Russian: AC3, 192 Kb/s (2 ch)
Аудио 2: Spanish: AC3, 384 Kb/s (6 ch)
Формат субтитров: softsub (SRT)
Доп. информация о субтитрах: English

MediaInfo

General
Unique ID : 193186122543898264933285644616796168450 (0x91564B38190E092B92CF2DC7FA976102)
Complete name : D:\Bopbl.2015.L2.WEB-DL.1080p.mkv
Format : Matroska
Format version : Version 2
File size : 2.64 GiB
Duration : 1h 37mn
Overall bit rate : 3 881 Kbps
Encoded date : UTC 2016-03-07 08:28:20
Writing application : mkvmerge v7.8.0 ('River Man') 32bit built on Apr 3 2015 12:11:22
Writing library : libebml v1.3.1 + libmatroska v1.4.2
Video
ID : 1
Format : AVC
Format/Info : Advanced Video Codec
Format profile : [email protected]
Format settings, CABAC : Yes
Format settings, ReFrames : 4 frames
Codec ID : V_MPEG4/ISO/AVC
Duration : 1h 37mn
Bit rate : 3 228 Kbps
Width : 1 912 pixels
Height : 796 pixels
Display aspect ratio : 2.40:1
Frame rate mode : Constant
Frame rate : 23.976 fps
Color space : YUV
Chroma subsampling : 4:2:0
Bit depth : 8 bits
Scan type : Progressive
Bits/(Pixel*Frame) : 0.088
Stream size : 2.19 GiB (83%)
Writing library : x264 core 142 r2479 dd79a61
Encoding settings : cabac=1 / ref=1 / deblock=1:0:0 / analyse=0x1:0x111 / me=hex / subme=2 / psy=1 / psy_rd=1.00:0.00 / mixed_ref=0 / me_range=16 / chroma_me=1 / trellis=0 / 8x8dct=0 / cqm=0 / deadzone=21,11 / fast_pskip=1 / chroma_qp_offset=0 / threads=6 / lookahead_threads=2 / sliced_threads=0 / nr=0 / decimate=1 / interlaced=0 / bluray_compat=0 / constrained_intra=0 / bframes=3 / b_pyramid=2 / b_adapt=1 / b_bias=0 / direct=1 / weightb=1 / open_gop=0 / weightp=1 / keyint=240 / keyint_min=24 / scenecut=40 / intra_refresh=0 / rc_lookahead=10 / rc=crf / mbtree=1 / crf=20.0 / qcomp=0.60 / qpmin=0 / qpmax=69 / qpstep=4 / vbv_maxrate=20000 / vbv_bufsize=25000 / crf_max=0.0 / nal_hrd=none / filler=0 / ip_ratio=1.40 / aq=1:1.00
Language : Spanish
Default : Yes
Forced : No
Color range : Limited
Color primaries : BT.709
Transfer characteristics : BT.709
Matrix coefficients : BT.709
Audio #1
ID : 2
Format : AC-3
Format/Info : Audio Coding 3
Mode extension : CM (complete main)
Format settings, Endianness : Big
Codec ID : A_AC3
Duration : 1h 37mn
Bit rate mode : Constant
Bit rate : 192 Kbps
Channel(s) : 2 channels
Channel positions : Front: L R
Sampling rate : 48.0 KHz
Compression mode : Lossy
Delay relative to video : -83ms
Stream size : 134 MiB (5%)
Language : Russian
Default : Yes
Forced : No
Audio #2
ID : 3
Format : AC-3
Format/Info : Audio Coding 3
Mode extension : CM (complete main)
Format settings, Endianness : Big
Codec ID : A_AC3
Duration : 1h 37mn
Bit rate mode : Constant
Bit rate : 384 Kbps
Channel(s) : 6 channels
Channel positions : Front: L C R, Side: L R, LFE
Sampling rate : 48.0 KHz
Compression mode : Lossy
Stream size : 267 MiB (10%)
Language : Spanish
Default : No
Forced : No
Text
ID : 4
Format : UTF-8
Codec ID : S_TEXT/UTF8
Codec ID/Info : UTF-8 Plain Text
Language : English
Default : No
Forced : No
-

Скриншоты


- -

Создавать темы 07-Мар-2016 16:52

[Профиль]  [ЛС] 

Топик был перенесен из форума Фильмы за 2015 в форум HD-video
ruhal

Создавать темы 07-Мар-2016 17:29

 

Топик был перенесен из форума HD-video в форум Зарубежное кино
ruhal

Создавать темы 07-Мар-2016 17:29

 
Показать сообщения:    
Ответить на тему

Текущее время: 22-Сен 04:09

Часовой пояс: UTC + 5



Вы не можете начинать темы
Вы не можете отвечать на сообщения
Вы не можете редактировать свои сообщения
Вы не можете удалять свои сообщения
Вы не можете голосовать в опросах
Вы не можете прикреплять файлы к сообщениям
Вы не можете скачивать файлы