Стив Джобс / Steve Jobs (Дэнни Бойл) [2015, США, Драма, биография, HDRip] (Dub : [iTunes])

Ответить на тему
 

mp1988 ®

Стаж: 6 лет 10 месяцев

Сообщений: 607

Симпатии: 971

Стив Джобс / Steve Jobs
Страна: США, Cloud Eight Films, Decibel Films, Digital Image Associates, Legendary Pictures, Management 360,
Жанр: Драма, биография
Год выпуска: 2015
Продолжительность: 02:02:34
Перевод: Профессиональный (дублированный) [iTunes]
Cубтитры: нет
Режиссер: Дэнни Бойл
В ролях: айкл Фассбендер, Сет Роген, Джефф Дэниелс, Кейт Уинслет, Майкл Стулбарг, Кэтрин Уотерстон, Перла Аней-Жардине, Рипли Собо, Макензи Мосс, Сара Снук
Описание: История жизни одного из самых выдающихся умов планеты, основателя компании Apple, Стива Джобса.
Качество видео: HDRip
Формат видео: AVI
Видео: XviD,1206 kb/s, 720x304
Аудио: AC3, 384 Kbps, 6ch

MediaInfo

Формат : AVI
Формат/Информация : Audio Video Interleave
Размер файла : 1,37 Гбайт
Продолжительность : 2 ч. 2 м.
Общий поток : 1599 Кбит/сек
Название фильма : Dzh0bC.2O15.D.HDRip.14OOMB
Программа кодирования : VirtualDubMod 1.5.10.2 (build 2540/release)
Формат оригинала/Имя : Movie
Видео
Идентификатор : 0
Формат : MPEG-4 Visual
Профиль формата : Advanced [email protected]
Параметр BVOP формата : 2
Параметр QPel формата : Нет
Параметр GMC формата : Без точки перехода
Параметр матрицы формата : Default (MPEG)
Идентификатор кодека : XVID
Идентификатор кодека/Подсказка : XviD
Продолжительность : 2 ч. 2 м.
Битрейт : 1206 Кбит/сек
Ширина : 720 пикселей
Высота : 304 пикселя
Соотношение сторон : 2,35:1
Частота кадров : 23,976 кадра/сек
Цветовое пространство : YUV
Субдискретизация насыщенности : 4:2:0
Битовая глубина : 8 бит
Тип развёртки : Прогрессивная
Метод сжатия : С потерями
Бит/(Пиксели*Кадры) : 0.230
Размер потока : 1,03 Гбайт (75%)
Библиотека кодирования : XviD 1.2.1 (UTC 2008-12-04)
Аудио
Идентификатор : 1
Формат : AC-3
Формат/Информация : Audio Coding 3
Расширение режима : CM (complete main)
Параметр Endianness формата : Big
Идентификатор кодека : 2000
Продолжительность : 2 ч. 2 м.
Вид битрейта : Постоянный
Битрейт : 384 Кбит/сек
Каналы : 6 каналов
Расположение каналов : Front: L C R, Side: L R, LFE
Частота : 48,0 КГц
Битовая глубина : 16 бит
Метод сжатия : С потерями
Задержка видео : 18 мс.
Размер потока : 336 Мбайт (24%)
Выравнивание : Разделение по промежуткам
Продолжительность промежутка : 42 мс. (1,00 видеокадр)
Время предзагрузки промежутка : 500 мс.

Скриншоты



Создавать темы 08-Мар-2016 09:27

[Профиль]  [ЛС] 

Powered by GMC

Стаж: 2 года 1 месяц

Сообщений: 202

Симпатии: 31

а можно ли сразу Золото дать. оно того стоить!

Создавать темы 09-Мар-2016 17:05

[Профиль]  [ЛС] 

Warhammer

Стаж: 7 лет 2 месяца

Сообщений: 21

Симпатии: 1

отпишитесь стоит качать или нет?

Создавать темы 24-Мар-2016 11:13

[Профиль]  [ЛС] 
Показать сообщения:    
Ответить на тему

Текущее время: 16-Дек 04:30

Часовой пояс: UTC + 5



Вы не можете начинать темы
Вы не можете отвечать на сообщения
Вы не можете редактировать свои сообщения
Вы не можете удалять свои сообщения
Вы не можете голосовать в опросах
Вы не можете прикреплять файлы к сообщениям
Вы не можете скачивать файлы