Два ствола / Popoz (Мартин Смитс, Эрвин ван ден Эшоф) [2015, Нидерланды / Comedy Central, NL Film, боевик, комедия, HDRip] (MVO : [RG.paravozik])

Ответить на тему
 

mp1988 ®

Стаж: 6 лет 8 месяцев

Сообщений: 607

Симпатии: 971

Два ствола / Popoz
Страна: Нидерланды / Comedy Central, NL Film
Жанр: боевик, комедия
Год выпуска: 2015
Продолжительность: 01:25:40
Перевод: Любительский (многоголосый закадровый) [RG.paravozik]
Cубтитры: нет
Режиссер: Мартин Смитс, Эрвин ван ден Эшоф
В ролях: Leo Alkemade, Урия Арнхем, Пьер Бокма, Dick Carlier, Ноэль Дилен, Рёланд Фернхут, Markoesa Hamer, Серхио Хасселбайнк, Фабиан Янсен, Barbara Klaaysen
Описание: Два неудачливых друга-полицейских попадают в тюрьму за случайное массовое убийство заложников. В тюрьме они быстро обживаются и выходят на след давно разыскиваемой банды наркоторговцев.-- --Качество видео: HDRip
Формат видео: AVI
Видео: XviD, 2151 Кбит/с, 720x304
Аудио: MP3, 2 ch, 128 Кбит/с

MediaInfo

Формат : AVI
Формат/Информация : Audio Video Interleave
Размер файла : 1,37 Гбайт
Продолжительность : 1 ч. 25 м.
Общий поток : 2288 Кбит/сек
Программа кодирования : VirtualDubMod 1.5.10.3 | www.virtualdub-fr.org || (build 2550/release)
Библиотека кодирования : VirtualDub build 32842/release
Видео
Идентификатор : 0
Формат : MPEG-4 Visual
Профиль формата : Advanced [email protected]
Параметр BVOP формата : 2
Параметр QPel формата : Нет
Параметр GMC формата : Без точки перехода
Параметр матрицы формата : Default (MPEG)
Идентификатор кодека : XVID
Идентификатор кодека/Подсказка : XviD
Продолжительность : 1 ч. 25 м.
Битрейт : 2151 Кбит/сек
Ширина : 720 пикселей
Высота : 304 пикселя
Соотношение сторон : 2,35:1
Частота кадров : 24,000 кадра/сек
Цветовое пространство : YUV
Субдискретизация насыщенности : 4:2:0
Битовая глубина : 8 бит
Тип развёртки : Прогрессивная
Метод сжатия : С потерями
Бит/(Пиксели*Кадры) : 0.409
Размер потока : 1,29 Гбайт (94%)
Библиотека кодирования : XviD 1.2.1 (UTC 2008-12-04)
Аудио
Идентификатор : 1
Формат : MPEG Audio
Версия формата : Version 1
Профиль формата : Layer 3
Режим : Joint stereo
Расширение режима : MS Stereo
Идентификатор кодека : 55
Идентификатор кодека/Подсказка : MP3
Продолжительность : 1 ч. 25 м.
Вид битрейта : Постоянный
Битрейт : 128 Кбит/сек
Каналы : 2 канала
Частота : 48,0 КГц
Метод сжатия : С потерями
Размер потока : 78,4 Мбайт (6%)
Выравнивание : Разделение по промежуткам
Продолжительность промежутка : 42 мс. (1,00 видеокадр)
Время предзагрузки промежутка : 500 мс.

Скриншоты



Создавать темы 08-Мар-2016 11:15

[Профиль]  [ЛС] 

Kakcam

Стаж: 6 лет 10 месяцев

Сообщений: 137

Симпатии: 7

как фильм?

Создавать темы 08-Мар-2016 14:02

[Профиль]  [ЛС] 

gold_man

Стаж: 8 лет 1 месяц

Сообщений: 162

Симпатии: 18

как фильм подскажите стоили качать ?

Создавать темы 09-Мар-2016 10:06

[Профиль]  [ЛС] 
Показать сообщения:    
Ответить на тему

Текущее время: 18-Окт 14:26

Часовой пояс: UTC + 5



Вы не можете начинать темы
Вы не можете отвечать на сообщения
Вы не можете редактировать свои сообщения
Вы не можете удалять свои сообщения
Вы не можете голосовать в опросах
Вы не можете прикреплять файлы к сообщениям
Вы не можете скачивать файлы