Черная месса / Black Mass (Скотт Купер) [2015, США, драма, криминал, биография, WEB-DLRip] [iTunes]

Ответить на тему
 

mp1988 ®

Стаж: 6 лет 6 месяцев

Сообщений: 607

Симпатии: 971

Черная месса / Black Mass
«Тайный сговор ФБР и одного из самых жестоких гангстеров в истории»

Год выпуска: 2015
Страна: США, Великобритания
Жанр: драма, криминал, биография
Продолжительность: 02:02:36
Перевод: Профессиональный (полное дублирование) | iTunes--Режиссер: Скотт Купер / Scott Cooper--В ролях: Джонни Депп (James «Whitey» Bulger), Джоэл Эдгертон (John Connolly), Бенедикт Камбербэтч (Billy Bulger), Кевин Бейкон (Charles McGuire), Джесси Племонс (Kevin Weeks), Питер Сарсгаард (Brian Halloran), Кори Столл (Fred Wyshak), Дакота Джонсон (Lindsey Cyr), Рори Кокрейн (Steve Flemmi), Дэвид Харбор (John Morris), Адам Скотт (FBI Agent Robert Fitzpatrick), Джулианна Николсон (Marianne Connolly)--Описание:
Картина расскажет об Уайти Балджере, знаменитом бостонском гангстере, который 16 лет находился в бегах и был арестован в июне 2011 года в Санта-Монике. Балджер, которому уже за 80, обвинялся в рэкете, был замешан в 19 убийствах и в то же время работал информатором на ФБР. Чтобы не попасть за решетку, он исчез в 1995 году и 16 лет успешно скрывался от правосудия.--Рейтинг:
 MPAA: R - Лицам до 17 лет обязательно присутствие взрослого--Качество: WEB-DLRip
Формат: AVI
Видео кодек: XviD
Аудио кодек: AC3
Видео: 720x304 (2.37:1), XviD build 73 ~1305 kbps avg,
Аудио: 48 kHz, AC3 Dolby Digital, 6 каналов , ~384 kbps

MediaInfo

Формат : AVI
Формат/Информация : Audio Video Interleave
Размер файла : 1,45 Гбайт
Продолжительность : 2 ч. 2 м.
Общий поток : 1698 Кбит/сек
Название фильма : Chernaja.Messa.2015.D.WEB-DLRip.1.46Gb_MegaPeer_by_Twi7ter
Режиссёр : Twi7ter
Жанр : Drama/Crime
Программа кодирования : VirtualDubMod 1.5.10.3 (build 2550/release)
Формат оригинала/Имя : Movie
Видео
Идентификатор : 0
Формат : MPEG-4 Visual
Профиль формата : Advanced [email protected]
Параметр BVOP формата : 1
Параметр QPel формата : Нет
Параметр GMC формата : Без точки перехода
Параметр матрицы формата : Выборочная
Идентификатор кодека : XVID
Идентификатор кодека/Подсказка : XviD
Продолжительность : 2 ч. 2 м.
Битрейт : 1305 Кбит/сек
Ширина : 720 пикселей
Высота : 304 пикселя
Соотношение сторон : 2,35:1
Частота кадров : 23,976 кадра/сек
Цветовое пространство : YUV
Субдискретизация насыщенности : 4:2:0
Битовая глубина : 8 бит
Тип развёртки : Прогрессивная
Метод сжатия : С потерями
Бит/(Пиксели*Кадры) : 0.249
Размер потока : 1,12 Гбайт (77%)
Библиотека кодирования : XviD 67
Аудио
Идентификатор : 1
Формат : AC-3
Формат/Информация : Audio Coding 3
Расширение режима : CM (complete main)
Параметр Endianness формата : Big
Идентификатор кодека : 2000
Продолжительность : 2 ч. 2 м.
Вид битрейта : Постоянный
Битрейт : 384 Кбит/сек
Каналы : 6 каналов
Расположение каналов : Front: L C R, Side: L R, LFE
Частота : 48,0 КГц
Битовая глубина : 16 бит
Метод сжатия : С потерями
Размер потока : 337 Мбайт (23%)
Выравнивание : Разделение по промежуткам
Продолжительность промежутка : 42 мс. (1,00 видеокадр)
Время предзагрузки промежутка : 500 мс.

Скриншоты



Создавать темы 08-Мар-2016 11:38

[Профиль]  [ЛС] 

dadil

Стаж: 4 года 5 месяцев

Сообщений: 20

Симпатии: 4

Скриншоты бы...

Создавать темы 28-Июл-2016 16:02

[Профиль]  [ЛС] 
Показать сообщения:    
Ответить на тему

Текущее время: 22-Авг 00:47

Часовой пояс: UTC + 5



Вы не можете начинать темы
Вы не можете отвечать на сообщения
Вы не можете редактировать свои сообщения
Вы не можете удалять свои сообщения
Вы не можете голосовать в опросах
Вы не можете прикреплять файлы к сообщениям
Вы не можете скачивать файлы