Здравствуй, папа, Новый год / Daddy's Home (Шон Андерс) [2015, США, Комедия, HDRip] [Звук c CAMRip]

Ответить на тему
 

ruhal ®

Стаж: 2 года 6 месяцев

Сообщений: 1181

Симпатии: 1836

- -Здравствуй, папа, Новый год / Daddy's Home- Страна: США
Жанр: Комедия
Год выпуска: 2015
Продолжительность: 01:36:01-Перевод:дублированный [Звук c CAMRip]
Cубтитры: нет-Режиссер: Шон Андерс-В ролях: Уилл Феррелл, Марк Уолберг, Линда Карделлини, Томас Хейден Чёрч,
Скарлет Эстевез, Оуэн Ваккаро, Бобби Каннавале, Хэннибал Бёресс, Билл Бёрр, Джейми Денбо-Описание: Отец двоих детей возвращается к своей бывшей жене, которая успела выйти замуж,
и теперь его ждет соперничество с отчимом за внимание своих отпрысков.-Качество видео: HDRip
Формат видео: AVI
Видео: Xvid 720x400 23.976fps 1836kbps
Аудио: MP3 48000Hz stereo 192kbps-

MediaInfo

General
Complete name : E:\Films\PapaKo.2015.D.HDRip.14OOMB.avi
Format : AVI
Format/Info : Audio Video Interleave
File size : 1.37 GiB
Duration : 1h 36mn
Overall bit rate : 2 038 Kbps
Writing application : VirtualDubMod 1.5.10.2 (build 2540/release)
Writing library : VirtualDubMod build 2540/release
Video
ID : 0
Format : MPEG-4 Visual
Format profile : Advanced [email protected]
Format settings, BVOP : 2
Format settings, QPel : No
Format settings, GMC : No warppoints
Format settings, Matrix : Default (MPEG)
Codec ID : XVID
Codec ID/Hint : XviD
Duration : 1h 36mn
Bit rate : 1 837 Kbps
Width : 720 pixels
Height : 400 pixels
Display aspect ratio : 16:9
Frame rate : 23.976 fps
Color space : YUV
Chroma subsampling : 4:2:0
Bit depth : 8 bits
Scan type : Progressive
Compression mode : Lossy
Bits/(Pixel*Frame) : 0.266
Stream size : 1.23 GiB (90%)
Writing library : XviD 1.2.1 (UTC 2008-12-04)
Audio
ID : 1
Format : MPEG Audio
Format version : Version 1
Format profile : Layer 3
Mode : Joint stereo
Mode extension : MS Stereo
Codec ID : 55
Codec ID/Hint : MP3
Duration : 1h 36mn
Bit rate mode : Constant
Bit rate : 192 Kbps
Channel(s) : 2 channels
Sampling rate : 48.0 KHz
Compression mode : Lossy
Stream size : 132 MiB (9%)
Alignment : Aligned on interleaves
Interleave, duration : 42 ms (1.00 video frame)
Interleave, preload duration : 504 ms

Скриншот c названием фильма

Скриншоты



Создавать темы 08-Мар-2016 12:33

[Профиль]  [ЛС] 

slim4u

Стаж: 5 лет 9 месяцев

Сообщений: 1

а что фильм до сих пор не вышел в качестве???

Создавать темы 29-Апр-2016 02:09

[Профиль]  [ЛС] 

Kakcam

Стаж: 6 лет 10 месяцев

Сообщений: 137

Симпатии: 7

когда выйдет норм озвучка??

Комментарий от ruhal


Давно вышла уже, никто заливать не хочет

Создавать темы 21-Май-2016 12:39

[Профиль]  [ЛС] 

Kakcam

Стаж: 6 лет 10 месяцев

Сообщений: 137

Симпатии: 7

залейте пожалуйста с хорошей озвучкой:)

Создавать темы 26-Май-2016 10:52

[Профиль]  [ЛС] 

ruhal ®

Стаж: 2 года 6 месяцев

Сообщений: 1181

Симпатии: 1836

974773залейте пожалуйста с хорошей озвучкой:)
http://tas-ix.me/viewtopic.php?t=113421

Создавать темы 26-Май-2016 10:58

[Профиль]  [ЛС] 

Kakcam

Стаж: 6 лет 10 месяцев

Сообщений: 137

Симпатии: 7

974774
974773залейте пожалуйста с хорошей озвучкой:)
http://tas-ix.me/viewtopic.php?t=113421
спасибо, большое)

Создавать темы 27-Май-2016 10:46

[Профиль]  [ЛС] 
Показать сообщения:    
Ответить на тему

Текущее время: 20-Окт 06:29

Часовой пояс: UTC + 5



Вы не можете начинать темы
Вы не можете отвечать на сообщения
Вы не можете редактировать свои сообщения
Вы не можете удалять свои сообщения
Вы не можете голосовать в опросах
Вы не можете прикреплять файлы к сообщениям
Вы не можете скачивать файлы