Rihanna - Where Have You Been, [2011, США, PopR&B, HDRip-AVC]

Ответить на тему
 

ИЛЬЯС АЛЛАЯРОВ ®

Стаж: 2 года 4 месяца

Сообщений: 13

Симпатии: 2

Rihanna - Where Have You Been
Страна: США
Жанр: PopR&B
Год выпуска: 2011
Продолжительность: 00:04:14
Качество видео: HDRip-AVC
Формат видео: MP4
Видео: MPEG4 Video (H264) 1920x1080 23.976fps 4505kbps
Аудио: AAC 44100Hz stereo 145kbps

MediaInfo

Format : MPEG-4
Format profile : Base Media / Version 2
Codec ID : mp42
File size : 141 MiB
Duration : 4mn 13s
Overall bit rate mode : Variable
Overall bit rate : 4 653 Kbps
Encoded date : UTC 2012-04-26 18:44:04
Tagged date : UTC 2012-04-26 18:44:04
gsst : 0
gstd : 254071
gssd : BD075F5C3HH1335791322930242
gshh : o-o.preferred.ams03g05.v3.lscache8.c.youtube.com
Video
ID : 1
Format : AVC
Format/Info : Advanced Video Codec
Format profile : [email protected]
Format settings, CABAC : Yes
Format settings, ReFrames : 1 frame
Codec ID : avc1
Codec ID/Info : Advanced Video Coding
Duration : 4mn 13s
Bit rate : 4 505 Kbps
Maximum bit rate : 12.7 Mbps
Width : 1 920 pixels
Height : 1 080 pixels
Display aspect ratio : 16:9
Frame rate mode : Constant
Frame rate : 23.976 fps
Color space : YUV
Chroma subsampling : 4:2:0
Bit depth : 8 bits
Scan type : Progressive
Bits/(Pixel*Frame) : 0.091
Stream size : 136 MiB (97%)
Encoded date : UTC 1970-01-01 00:00:00
Tagged date : UTC 2012-04-26 18:44:28
Audio
ID : 2
Format : AAC
Format/Info : Advanced Audio Codec
Format profile : LC
Codec ID : 40
Duration : 4mn 13s
Bit rate mode : Variable
Bit rate : 144 Kbps
Maximum bit rate : 183 Kbps
Channel(s) : 2 channels
Channel positions : Front: L R
Sampling rate : 44.1 KHz
Compression mode : Lossy
Stream size : 4.40 MiB (3%)
Title : IsoMedia File Produced by Google, 5-11-2011

Скриншоты

Создавать темы 08-Мар-2016 13:45

[Профиль]  [ЛС] 
Показать сообщения:    
Ответить на тему

Текущее время: 20-Сен 15:52

Часовой пояс: UTC + 5



Вы не можете начинать темы
Вы не можете отвечать на сообщения
Вы не можете редактировать свои сообщения
Вы не можете удалять свои сообщения
Вы не можете голосовать в опросах
Вы не можете прикреплять файлы к сообщениям
Вы не можете скачивать файлы