Shakira ft Rihanna-Can't Remember Forget You, [2014, США, Pop, HDRip-AVC]

Ответить на тему
 

ИЛЬЯС АЛЛАЯРОВ ®

Стаж: 2 года 7 месяцев

Сообщений: 13

Симпатии: 2

Shakira ft Rihanna-Can't Remember Forget You
Страна:США
Жанр: Pop
Год выпуска: 2014
Продолжительность: 00:03:28
Качество видео: HDRip-AVC
Формат видео: MP4
Видео: MPEG4 Video (H264) 1920x1080 23.974fps 3232kbps
Аудио: AAC 44100Hz stereo 125kbps

MediaInfo

Format : MPEG-4
Format profile : Base Media
Codec ID : isom
File size : 83.5 MiB
Duration : 3mn 28s
Overall bit rate mode : Variable
Overall bit rate : 3 361 Kbps
Encoded date : UTC 2014-01-28 21:21:54
Tagged date : UTC 2014-01-28 21:21:54
Video
ID : 1
Format : AVC
Format/Info : Advanced Video Codec
Format profile : [email protected]
Format settings, CABAC : Yes
Format settings, ReFrames : 2 frames
Codec ID : avc1
Codec ID/Info : Advanced Video Coding
Duration : 3mn 28s
Bit rate : 3 233 Kbps
Width : 1 920 pixels
Height : 1 080 pixels
Display aspect ratio : 16:9
Frame rate mode : Variable
Frame rate : 23.976 fps
Minimum frame rate : 23.974 fps
Maximum frame rate : 30.303 fps
Color space : YUV
Chroma subsampling : 4:2:0
Bit depth : 8 bits
Scan type : Progressive
Bits/(Pixel*Frame) : 0.065
Stream size : 80.3 MiB (96%)
Encoded date : UTC 2014-01-28 21:21:54
Tagged date : UTC 2014-01-28 21:21:54
Audio
ID : 2
Format : AAC
Format/Info : Advanced Audio Codec
Format profile : LC
Codec ID : 40
Duration : 3mn 28s
Bit rate mode : Variable
Bit rate : 126 Kbps
Channel(s) : 2 channels
Channel positions : Front: L R
Sampling rate : 44.1 KHz
Compression mode : Lossy
Stream size : 3.12 MiB (4%)

Скриншоты

Создавать темы 08-Мар-2016 14:06

[Профиль]  [ЛС] 
Показать сообщения:    
Ответить на тему

Текущее время: 16-Дек 23:37

Часовой пояс: UTC + 5



Вы не можете начинать темы
Вы не можете отвечать на сообщения
Вы не можете редактировать свои сообщения
Вы не можете удалять свои сообщения
Вы не можете голосовать в опросах
Вы не можете прикреплять файлы к сообщениям
Вы не можете скачивать файлы