Акулы на свободе / Sharkansas Women's Prison Massacre (Джим Уайнорски / Jim Wynorski) [2016, США, Ужасы, фантастика, боевик, WEB-DLRip] (MVO) [Официальный звук]

Ответить на тему
 

UZM ®

Стаж: 5 лет 2 месяца

Сообщений: 169

Симпатии: 189

Акулы на свободе / Sharkansas Women's Prison Massacre
Страна: США
Жанр: Ужасы, фантастика, боевик
Год выпуска: 2016
Продолжительность: 01:20:21
Перевод: Профессиональный (многоголосый закадровый)[Официальный звук]
Cубтитры: нет
Режиссер: Джим Уайнорски / Jim Wynorski
В ролях: Доминик Суэйн, Трейси Лордс, Кристин Нгуйен, Синди Лукас, Кори Лэндис, Джон Каллахан, Джон Арчер Лунгрен, Эми Холт, Серафин Фалькон
Описание: Фантастический боевик о кровожадных акулах, каким-то чудом оказавшихся в мелких водоемах американского городка. Плановые взрывы недалеко от озера беспокоят дремавшую все это время акулу-убийцу. Закончив работу, трудяги-саперы решают выпить по бутылочке пива в баре, который находится недалеко отсюда. Хвастаясь возможностями своего внедорожника, один из рабочих едет прямо по болоту, не подозревая, что уже очень скоро гигантская хищная акула попросту собьет машину… Вскоре в лесу находят изуродованный, разорванный на части труп. Детективы подозревают, что это сделал крокодил, но под перевернутой лодкой они находят полуживого старика, который повторяет лишь одно слово: «акула».
Качество видео: WEB-DLRip
Формат видео: AVI
Видео: MPEG-4, Xvid 720x400 25fps 1978kbps
Аудио: Dolby AC3 48,0Hz stereo 448kbps

MediaInfo

General
Complete name : D:\Кино\Фильмы 2016\Akuly.na.svobode.2016.P.WEBDLRip.avi
Format : AVI
Format/Info : Audio Video Interleave
File size : 1.37 GiB
Duration : 1h 20mn
Overall bit rate : 2 437 Kbps
Writing application : VirtualDubMod 1.5.10.3 | www.virtualdub-fr.org || (build 2550/release)
Writing library : VirtualDubMod build 2550/release
Video
ID : 0
Format : MPEG-4 Visual
Format profile : Advanced [email protected]
Format settings, BVOP : 2
Format settings, QPel : No
Format settings, GMC : No warppoints
Format settings, Matrix : Default (MPEG)
Codec ID : XVID
Codec ID/Hint : XviD
Duration : 1h 20mn
Bit rate : 1 979 Kbps
Width : 720 pixels
Height : 400 pixels
Display aspect ratio : 16:9
Frame rate : 25.000 fps
Color space : YUV
Chroma subsampling : 4:2:0
Bit depth : 8 bits
Scan type : Progressive
Compression mode : Lossy
Bits/(Pixel*Frame) : 0.275
Stream size : 1.11 GiB (81%)
Writing library : XviD 1.2.1 (UTC 2008-12-04)
Audio
ID : 1
Format : AC-3
Format/Info : Audio Coding 3
Mode extension : CM (complete main)
Format settings, Endianness : Big
Codec ID : 2000
Duration : 1h 20mn
Bit rate mode : Constant
Bit rate : 448 Kbps
Channel(s) : 2 channels
Channel positions : Front: L R
Sampling rate : 48.0 KHz
Compression mode : Lossy
Stream size : 257 MiB (18%)
Alignment : Split accross interleaves
Interleave, duration : 40 ms (1.00 video frame)
Interleave, preload duration : 500 ms

Скриншот c названием фильма

Скриншоты

,
,
,


Последний раз редактировалось: UZM (2016-03-08 19:38), всего редактировалось 2 раз(а)

Создавать темы 08-Мар-2016 19:22

[Профиль]  [ЛС] 

Топик был перенесен из форума Фильмы за 2016 в форум CamRip, DVDScr и т.п.
ruhal

Создавать темы 08-Мар-2016 19:36

 

Топик был перенесен из форума CamRip, DVDScr и т.п. в форум Фильмы за 2016
ruhal

Создавать темы 08-Мар-2016 19:37

 

yandeh_

Стаж: 4 года 1 месяц

Сообщений: 47

Симпатии: 7

САМЫЙ хреновый ФИЛЬМ В ИСТОРИ КИНО !!

Создавать темы 12-Мар-2016 16:16

[Профиль]  [ЛС] 

Mr.Blackstar

Стаж: 1 год 9 месяцев

Сообщений: 10

Симпатии: 3

хренова

Создавать темы 12-Мар-2016 21:13

[Профиль]  [ЛС] 

Mr.Blackstar

Стаж: 1 год 9 месяцев

Сообщений: 10

Симпатии: 3

фильм отстой

Создавать темы 12-Мар-2016 21:15

[Профиль]  [ЛС] 

UZM ®

Стаж: 5 лет 2 месяца

Сообщений: 169

Симпатии: 189

Ребята у каждого свои вкусы.

Создавать темы 12-Мар-2016 21:54

[Профиль]  [ЛС] 

SamuelNumens

Стаж: 4 года 2 месяца

Сообщений: 24

Вчера по ТВ-3 смотрел мимолетом. Только из за девушек)))

Создавать темы 17-Мар-2016 23:17

[Профиль]  [ЛС] 

Rin-mandarin

Стаж: 6 лет 8 месяцев

Сообщений: 110

Симпатии: 51

ТВ-3 Рулит))))

Создавать темы 07-Май-2016 07:41

[Профиль]  [ЛС] 

tayat

Стаж: 4 года 3 месяца

Сообщений: 21

Симпатии: 5

АААА! Мои глаза!!!! Какой ужас! Фильм просто дер... ужасный!

Создавать темы 13-Май-2016 23:54

[Профиль]  [ЛС] 

malinka12345678

Стаж: 1 год 8 месяцев

Сообщений: 4

Симпатии: 3

Акулы живут в СОЛЁННОЙ ВОДЕ! Ну НИКАК не в мелках водоёмах где пресная вода... Американци... эх... Вспоминаются слова Зодоронова- НУ... =)

Создавать темы 14-Май-2016 05:35

[Профиль]  [ЛС] 

Daimos

Стаж: 4 года 11 месяцев

Сообщений: 35

Симпатии: 8

Да что его смотреть то? Я вот прочитал описание, считай фильм посмотрел :)
Детективы подозревают, что это сделал крокодил, но под перевернутой лодкой они находят полуживого старика, который повторяет лишь одно слово: «акула».
Но бравые детективы настаивают на своей первой версии, что все произошло по вине крокодила (может быть даже Данди). И пока они охотились за крокодилом, болотная акула всех съела, даже детективов. Конец.

Создавать темы 16-Май-2016 22:47

[Профиль]  [ЛС] 
Показать сообщения:    
Ответить на тему

Текущее время: 18-Авг 13:55

Часовой пояс: UTC + 5



Вы не можете начинать темы
Вы не можете отвечать на сообщения
Вы не можете редактировать свои сообщения
Вы не можете удалять свои сообщения
Вы не можете голосовать в опросах
Вы не можете прикреплять файлы к сообщениям
Вы не можете скачивать файлы