Взорвать Гитлера / Elser (Оливер Хиршбигель / Oliver Hirschbiegel) [2015, Германия, драма, HDRip] MVO (Paradox & Omskbird records)

Ответить на тему
 

Azazel ®

Стаж: 5 лет 10 месяцев

Сообщений: 62

Симпатии: 6

Взорвать Гитлера / Elser
Страна: Германия
Жанр: драма
Год выпуска: 2015
Продолжительность: 01:54:12
Перевод: Любительский (многоголосый закадровый) Студия "Paradox & Omskbird records"
Cубтитры: нет
Режиссер: Оливер Хиршбигель / Oliver Hirschbiegel
В ролях: Кристиан Фридель, Катарина Шюттлер, Бургхарт Клаусснер, Йохан фон Бюлов, Феликс Эйтнер, Давид Зиммершмид, Рюдигер Клинк, Симон Лихт, Корнелия Конгден, Мартин Мария Абрам, Михаэль Кранц, Герти Драссль
Описание: Всего 13 минут не хватило плотнику Георгу Эльзеру, чтобы изменить ход мировой истории. 8 ноября 1939 года в мюнхенской пивной «Бюргербройкеллер», где Гитлер каждый год в годовщину «Пивного путча» выступал перед ветеранами Национал-социалистической рабочей партии Германии Эльзер вмонтировал самодельное взрывное устройство с часовым механизмом в колонну, перед которой обычно устанавливали трибуну для вождя.
Качество видео: HDRip
Формат видео: AVI
Видео: XviD, 720x304, ~1374 kbps, 24 fps
Аудио: AC3, 48 kHz, 448 kbps, 6 ch

MediaInfo

General
Complete name : E:\фильмы\GitLer.2O15.P.HDRip.1.46GB.avi
Format : AVI
Format/Info : Audio Video Interleave
File size : 1.46 GiB
Duration : 1h 54mn
Overall bit rate : 1 832 Kbps
Writing application : VirtualDubMod 1.5.10.2 (build 2540/release)
Writing library : VirtualDubMod build 2540/release
Video
ID : 0
Format : MPEG-4 Visual
Format profile : Advanced [email protected]
Format settings, BVOP : Yes
Format settings, QPel : No
Format settings, GMC : No warppoints
Format settings, Matrix : Default (MPEG)
Codec ID : XVID
Codec ID/Hint : XviD
Duration : 1h 54mn
Bit rate : 1 375 Kbps
Width : 720 pixels
Height : 304 pixels
Display aspect ratio : 2.35:1
Frame rate : 24.000 fps
Color space : YUV
Chroma subsampling : 4:2:0
Bit depth : 8 bits
Scan type : Progressive
Compression mode : Lossy
Bits/(Pixel*Frame) : 0.262
Stream size : 1.10 GiB (75%)
Writing library : XviD 1.2.1 (UTC 2008-12-04)
Audio
ID : 1
Format : AC-3
Format/Info : Audio Coding 3
Mode extension : CM (complete main)
Format settings, Endianness : Big
Codec ID : 2000
Duration : 1h 54mn
Bit rate mode : Constant
Bit rate : 448 Kbps
Channel(s) : 6 channels
Channel positions : Front: L C R, Side: L R, LFE
Sampling rate : 48.0 KHz
Bit depth : 16 bits
Compression mode : Lossy
Stream size : 366 MiB (24%)
Alignment : Split accross interleaves
Interleave, duration : 42 ms (1.00 video frame)
Interleave, preload duration : 500 ms

Скриншоты





Последний раз редактировалось: Azazel (2016-03-08 22:26), всего редактировалось 1 раз

Создавать темы 08-Мар-2016 22:09

[Профиль]  [ЛС] 

kat222000

Стаж: 6 лет 8 месяцев

Сообщений: 608

Симпатии: 1055

Azazel, Подправлен перевод, Спасибо за релиз!

Создавать темы 08-Мар-2016 22:26

[Профиль]  [ЛС] 
Показать сообщения:    
Ответить на тему

Текущее время: 17-Дек 10:58

Часовой пояс: UTC + 5



Вы не можете начинать темы
Вы не можете отвечать на сообщения
Вы не можете редактировать свои сообщения
Вы не можете удалять свои сообщения
Вы не можете голосовать в опросах
Вы не можете прикреплять файлы к сообщениям
Вы не можете скачивать файлы