Молодость / Youth (Паоло Соррентино / Paolo Sorrentino) [2015, Италия, Франция, Швейцария, Великобритания, драма, HDRip] (Dub) [Лицензия] R5

Ответить на тему
 

mp1988 ®

Стаж: 6 лет 10 месяцев

Сообщений: 607

Симпатии: 971

Молодость / Youth
Год выпуска: 2015
Страна: Италия, Франция, Великобритания, Швейцария
Жанр: драма, комедия
Продолжительность: 02:03:33
Перевод: Профессиональный (полное дублирование) [Лицензия] R5
Субтитры: Нет--Режиссер: Паоло Соррентино / Paolo Sorrentino--В ролях: Майкл Кейн (Fred Ballinger), Харви Кейтель (Mick Boyle), Рэйчел Вайс (Lena Ballinger), Пол Дано (Jimmy Tree), Джейн Фонда (Brenda Morel), The Retrosettes (Swing Band), Габриэлла Белисарио (Escort), Алекс МакКуин (Queen's Emissary), Йен Кейр Аттард (1st Queen's Emissary Assistant #1), Adam Jackson-Smith (2nd Queen's Emissary Assistant #2), Роли Серрано (Diego Maradona (South American)), Лоредана Канната (South American's Wife)--Описание:
Фрэд - прославленный композитор и дирижер, вопреки просьбам Ее Величества, отказывается выступить на дне рождения принца Филиппа, и на это у него есть веская причина. Мик, оскароносный режиссер, вовсю работает над новым сценарием «фильма-откровения», но дело не слишком спорится.
Фрэд и Мик уже полвека дружат, смеются над собой и дивятся красоте и несправедливости этого мира. Это лето они проводят на альпийском курорте, где любовные переживания уже взрослых детей, случайно подсмотренные драмы и откровения далекого прошлого навсегда изменят судьбы друзей.
Рейтинг:
 MPAA: R - Лицам до 17 лет обязательно присутствие взрослого

Качество: HDRip | исх. Youth.2015.1080p.BluRay.DTS.x264-HDMaNiAcS |
Формат: AVI
Видео кодек: XviD
Аудио кодек: AC3
Видео: 720x304 (2.37:1), 23.976 fps, XviD build 73 ~1236 kbps avg, 0.23 bit/pixel
Аудио: 48 kHz, AC3 Dolby Digital, 3/2 (L,C,R,l,r) + LFE ch, ~448 kbps

MediaInfo

Общее
Полное имя : D:\Downloads\Molodost_(2015).avi
Формат : AVI
Формат/Информация : Audio Video Interleave
Размер файла : 1,46 Гбайт
Продолжительность : 2 ч. 3 м.
Общий поток : 1693 Кбит/сек
Название фильма : Molodost.2015.D.HDRip.1.46Gb_by_Twi7ter
Режиссёр : Twi7ter
Жанр : Drama/Comedy
Программа кодирования : VirtualDubMod 1.5.10.3 (build 2550/release)
Библиотека кодирования : VirtualDubMod build 2550/release
Формат оригинала/Имя : Movie
Видео
Идентификатор : 0
Формат : MPEG-4 Visual
Профиль формата : Advanced [email protected]
Параметр BVOP формата : 2
Параметр QPel формата : Нет
Параметр GMC формата : Без точки перехода
Параметр матрицы формата : Выборочная
Идентификатор кодека : XVID
Идентификатор кодека/Подсказка : XviD
Продолжительность : 2 ч. 3 м.
Битрейт : 1236 Кбит/сек
Ширина : 720 пикселей
Высота : 304 пикселя
Соотношение сторон : 2,35:1
Частота кадров : 23,976 кадра/сек
Цветовое пространство : YUV
Субдискретизация насыщенности : 4:2:0
Битовая глубина : 8 бит
Тип развёртки : Прогрессивная
Метод сжатия : С потерями
Бит/(Пиксели*Кадры) : 0.235
Размер потока : 1,07 Гбайт (73%)
Библиотека кодирования : XviD 73
Аудио
Идентификатор : 1
Формат : AC-3
Формат/Информация : Audio Coding 3
Расширение режима : CM (complete main)
Параметр Endianness формата : Big
Идентификатор кодека : 2000
Продолжительность : 2 ч. 3 м.
Вид битрейта : Постоянный
Битрейт : 448 Кбит/сек
Каналы : 6 каналов
Расположение каналов : Front: L C R, Side: L R, LFE
Частота : 48,0 КГц
Битовая глубина : 16 бит
Метод сжатия : С потерями
Размер потока : 396 Мбайт (26%)
Выравнивание : Разделение по промежуткам
Продолжительность промежутка : 42 мс. (1,00 видеокадр)
Время предзагрузки промежутка : 500 мс.

Скриншоты



Создавать темы 08-Мар-2016 22:39

[Профиль]  [ЛС] 
Показать сообщения:    
Ответить на тему

Текущее время: 12-Дек 19:21

Часовой пояс: UTC + 5



Вы не можете начинать темы
Вы не можете отвечать на сообщения
Вы не можете редактировать свои сообщения
Вы не можете удалять свои сообщения
Вы не можете голосовать в опросах
Вы не можете прикреплять файлы к сообщениям
Вы не можете скачивать файлы