Игорь Ким - Экономика для неэкономистов [2014, RUS]

Ответить на тему
 

pirat ®

Стаж: 5 лет 4 месяца

Сообщений: 216

Симпатии: 63

Экономика для неэкономистов

Автор: Игорь Ким
Сайт производителя: Coursera
Год выпуска: 2014
Жанр: Видеокурс
Язык: русский
Видео кодек: MPEG4
Видео: AVC, 960x540, ~216 Kbps
Аудио: AAC, 128 Kbps, 48.0 KHz
--Описание:Задача курса — дать базовые основы экономической грамотности и «экономического образа мышления» слушателям-некономистам в рамках короткого курса и показать, как экономические знания могут применяться в реальной жизни.
Этот курс вводного уровня включает важнейшие и наиболее связанные с повседневной жизнью темы из двух разделов экономической теории, микроэкономики и макроэкономики. Микроэкономика изучает поведение отдельных элементов экономической системы страны — прежде всего, потребителей и производителей — то, как они делают свой выбор (что купить/произвести) и как взаимодействуют друг с другом. Ключевые категории микроэкономического анализа, с которыми мы познакомимся: спрос и предложение; производство, издержки и прибыль; рыночные структуры (такие, как совершенная конкуренция, монополия и олигополия). Макроэкономика изучает экономическую систему страны как единое целое и проблемы, общие для всей экономики. Ключевые категории макроэкономического анализа, с которыми мы познакомимся: ВВП, инфляция и безработица; экономический рост и деловой цикл; государственная макроэкономическая политика.

MediaInfo

General
Complete name : \Ekonomika.Rant\1\1 - 1 - 1.1. Что изучают экономисты (1)_ (13_59).mp4
Format : MPEG-4
Format profile : Base Media
Codec ID : isom
File size : 54.6 MiB
Duration : 13mn 58s
Overall bit rate : 546 Kbps
Writing application : Lavf55.19.104
Video
ID : 1
Format : AVC
Format/Info : Advanced Video Codec
Format profile : [email protected]
Format settings, CABAC : Yes
Format settings, ReFrames : 4 frames
Codec ID : avc1
Codec ID/Info : Advanced Video Coding
Duration : 13mn 58s
Bit rate : 410 Kbps
Width : 960 pixels
Height : 540 pixels
Display aspect ratio : 16:9
Frame rate mode : Constant
Frame rate : 29.970 fps
Color space : YUV
Chroma subsampling : 4:2:0
Bit depth : 8 bits
Scan type : Progressive
Bits/(Pixel*Frame) : 0.026
Stream size : 41.0 MiB (75%)
Writing library : x264 core 138
Encoding settings : cabac=1 / ref=3 / deblock=1:0:0 / analyse=0x1:0x111 / me=hex / subme=7 / psy=1 / psy_rd=1.00:0.00 / mixed_ref=1 / me_range=16 / chroma_me=1 / trellis=1 / 8x8dct=0 / cqm=0 / deadzone=21,11 / fast_pskip=1 / chroma_qp_offset=-2 / threads=12 / lookahead_threads=2 / sliced_threads=0 / nr=0 / decimate=1 / interlaced=0 / bluray_compat=0 / constrained_intra=0 / bframes=3 / b_pyramid=2 / b_adapt=1 / b_bias=0 / direct=1 / weightb=1 / open_gop=0 / weightp=2 / keyint=250 / keyint_min=25 / scenecut=40 / intra_refresh=0 / rc_lookahead=40 / rc=crf / mbtree=1 / crf=28.0 / qcomp=0.60 / qpmin=0 / qpmax=69 / qpstep=4 / ip_ratio=1.40 / aq=1:1.00
Language : English
Audio
ID : 2
Format : AAC
Format/Info : Advanced Audio Codec
Format profile : LC
Codec ID : 40
Duration : 13mn 58s
Bit rate mode : Constant
Bit rate : 128 Kbps
Channel(s) : 2 channels
Channel positions : Front: L R
Sampling rate : 44.1 KHz
Compression mode : Lossy
Stream size : 12.8 MiB (23%)
Language : English

Программа курса

Неделя 1. Введение в экономическую теорию. Кто такие экономисты, чем они занимаются и как работают? Основные понятия и термины.
Недели 2 и 3. Спрос и предложение. Государство и рынок. Самая известная экономическая модель и ее применение. Закон спроса. Эластичность спроса по цене и другие виды эластичностей. Последствия государственного вмешательства в работу рынка.
Неделя 4. Производство и издержки. Что стоит за предложением. Кратко- и долгосрочный анализ поведения фирмы. Производство, издержки и прибыль фирмы.
Неделя 5. Типы рынков. Совершенная и монополистическая конкуренция, олигополия и монополия.
Неделя 6. Введение в макроэкономику. Макроэкономический кругооборот. Основные типы макроэкономических агентов и рынков и связи между ними. Среда бизнеса.
Неделя 7. Основные макроэкономические показатели. Система национальных счетов. Инфляция и безработица, процентные ставки, обменный курс.
Неделя 8. Экономический рост и цикл. Факторы экономического роста. Экономический цикл и его стадии.
Недели 9-10. Государственная макроэкономическая политика. Фискальная политика. Деньги и финансовые рынки. Монетарная политика. Открытая экономика. Платежный баланс и валютный курс. Государственная макроэкономическая политика в открытой экономике.

Курс создан при поддержке ПАО Сбербанк

Этот курс вводного уровня включает важнейшие и наиболее связанные с повседневной жизнью темы из двух разделов экономической теории, микроэкономики и макроэкономики. Микроэкономика изучает поведение отдельных элементов экономической системы страны - прежде всего, потребителей и производителей - то, как они делают свой выбор (что купить/произвести) и как взаимодействуют друг с другом. Ключевые категории микроэкономического анализа, с которыми мы познакомимся: спрос и предложение; производство, издержки и прибыль; рыночные структуры (такие, как совершенная конкуренция, монополия и олигополия). Макроэкономика изучает экономическую систему страны как единое целое и проблемы, общие для всей экономики. Ключевые категории макроэкономического анализа, с которыми мы познакомимся: ВВП, инфляция и безработица; экономический рост и деловой цикл; государственная макроэкономическая политика.
This introductory course explores main and most connected with everyday life topics of economics. Two parts of economics are micro-and macroeconomics. Microeconomics studies the behavior of smallest parts of national economy, first of all consumers and producers, their choices and interaction. In Microeconomics we deal with demand and supply; production, costs and profits; competition, monopoly and oligopoly. Macroeconomics studies the national economy as a whole and deals with GDP, inflation, unemployment; economic growth and business cycle; fiscal and monetary policy.

--усиленный труд мозга и тела за маленькое спасибо!

Создавать темы 09-Мар-2016 15:21

[Профиль]  [ЛС] 

pirat ®

Стаж: 5 лет 4 месяца

Сообщений: 216

Симпатии: 63

Старый Дядька Отлично! Признателен за помощь в раздаче)))

Создавать темы 09-Мар-2016 23:55

[Профиль]  [ЛС] 

Stalin

Стаж: 2 года 5 месяцев

Сообщений: 19

Симпатии: 5

Отпишитесь, как курс?

Создавать темы 25-Апр-2017 15:17

[Профиль]  [ЛС] 
Показать сообщения:    
Ответить на тему

Текущее время: 19-Авг 14:28

Часовой пояс: UTC + 5



Вы не можете начинать темы
Вы не можете отвечать на сообщения
Вы не можете редактировать свои сообщения
Вы не можете удалять свои сообщения
Вы не можете голосовать в опросах
Вы не можете прикреплять файлы к сообщениям
Вы не можете скачивать файлы