Омерзительная восьмерка / The Hateful Eight (Квентин Тарантино) [2015, США, триллер, драма, криминал, детектив, вестерн, BDRip] (Dub) (Sub Rus + Original Eng)

Ответить на тему
 

Vlad7667 ®

Стаж: 5 лет 1 месяц

Сообщений: 196

Симпатии: 187

Омерзительная восьмерка / The Hateful Eight-- Страна: США
Жанр: триллер, драма, криминал, детектив, вестерн
Год выпуска: 2015
Продолжительность: 02:48:07--Перевод: Профессиональный (дублированный)
Cубтитры: русские
Оригинальная аудиодорожка: английский--Режиссер: Квентин Тарантино--В ролях: Курт Рассел, Сэмюэл Л. Джексон, Тим Рот, Майкл Мэдсен, Дженнифер Джейсон Ли, Уолтон Гоггинс, Демиан Бишир, Брюс Дерн, Джеймс Паркс, Дэна Гурье--Описание: США после Гражданской войны. Легендарный охотник за головами Джон Рут по кличке Вешатель конвоирует заключенную. По пути к ним прибиваются еще несколько путешественников. Снежная буря вынуждает компанию искать укрытие в лавке на отшибе, где уже расположилось весьма пестрое общество: генерал конфедератов, мексиканец, ковбой… И один из них — не тот, за кого себя выдает.--Доп. информация: Эта добрая история от Квентина Тарантино начинается в занесенных снегами полях Вайоминга вблизи Скалистых гор спустя два года после окончания Гражданской войны. Знаменитый охотник за головами Джон "Вешатель" Рут галантно сопровождает до ближайшей виселицы некую Дейзи Домергу, беспрестанно демонстрирующую ослепительную улыбку в три зуба. На дороге они подбирают еще двоих случайных попутчиков. Все четверо вынуждены искать укрытие от надвигающегося снежного бурана в галантерейной лавке Минни на горном перевале, где их ожидает целый парк кровавых аттракционов.--Качество видео: BDRip
Формат видео: MKV--Видео: AVC,1920x696, 23.976,8755 kb/s
Аудио: ac3, 48000 Hz, 5.1, s16, 640 kb/s
Аудио 2: ac3, 48000 Hz, 2ch, s16, 192 kb/s
Аудио 3: ac3, 48000 Hz, 5.1, s16, 448 kb/s
Аудио 4: ac3, 48000 Hz, 5.1, s16, 448 kb/s
Аудио 5: DTS , 48000 Hz, 5.1, s16, 1510 kb/s

MediaInfo

General
Unique ID : 228729244462237621618023442577232823197 (0xAC13A66D6458EDD1992AB27D371D039D)
Complete name : F:\Кино HD\The.Hateful.Eight.2015.BDRip.1080p.mkv
Format : Matroska
Format version : Version 2
File size : 15.4 GiB
Duration : 2h 47mn
Overall bit rate : 13.1 Mbps
Encoded date : UTC 2016-03-07 08:54:22
Writing application : mkvmerge v4.0.0 ('The Stars were mine') сборка от Jun 6 2010 16:18:42
Writing library : libebml v1.0.0 + libmatroska v1.0.0
Video
ID : 1
Format : AVC
Format/Info : Advanced Video Codec
Format profile : [email protected]
Format settings, CABAC : Yes
Format settings, ReFrames : 5 frames
Codec ID : V_MPEG4/ISO/AVC
Duration : 2h 47mn
Bit rate : 9 618 Kbps
Width : 1 920 pixels
Height : 696 pixels
Display aspect ratio : 2.759
Frame rate mode : Constant
Frame rate : 23.976 (24000/1001) fps
Color space : YUV
Chroma subsampling : 4:2:0
Bit depth : 8 bits
Scan type : Progressive
Bits/(Pixel*Frame) : 0.300
Stream size : 11.3 GiB (73%)
Writing library : x264 core 142 r2431+42 c69a006 tMod [[email protected] X86_64]
Encoding settings : cabac=1 / ref=5 / deblock=1:-3:-3 / analyse=0x3:0x133 / me=umh / subme=11 / psy=1 / fade_compensate=0.00 / psy_rd=0.90:0.00 / mixed_ref=1 / me_range=32 / chroma_me=1 / trellis=2 / 8x8dct=1 / cqm=0 / deadzone=21,11 / fast_pskip=0 / chroma_qp_offset=-2 / threads=60 / lookahead_threads=5 / sliced_threads=0 / nr=0 / decimate=0 / interlaced=0 / bluray_compat=0 / constrained_intra=0 / fgo=0 / bframes=8 / b_pyramid=2 / b_adapt=2 / b_bias=0 / direct=3 / weightb=1 / open_gop=0 / weightp=2 / keyint=240 / keyint_min=23 / scenecut=40 / intra_refresh=0 / rc_lookahead=60 / rc=crf / mbtree=0 / crf=15.7000 / qcomp=0.60 / qpmin=0:0:0 / qpmax=69:69:69 / qpstep=4 / vbv_maxrate=40000 / vbv_bufsize=30000 / crf_max=0.0 / nal_hrd=none / filler=0 / ip_ratio=1.40 / pb_ratio=1.30 / aq=1:0.90 / aq-sensitivity=10.00 / aq-factor=1.00:1.00:1.00 / aq2=0 / aq3=0
Language : English
Default : No
Forced : No
Audio #1
ID : 2
Format : AC-3
Format/Info : Audio Coding 3
Mode extension : CM (complete main)
Format settings, Endianness : Big
Codec ID : A_AC3
Duration : 2h 47mn
Bit rate mode : Constant
Bit rate : 640 Kbps
Channel(s) : 6 channels
Channel positions : Front: L C R, Side: L R, LFE
Sampling rate : 48.0 KHz
Frame rate : 31.250 fps (1536 spf)
Compression mode : Lossy
Stream size : 768 MiB (5%)
Title : DUB by Wety
Language : Russian
Default : Yes
Forced : Yes
Audio #2
ID : 3
Format : AC-3
Format/Info : Audio Coding 3
Mode extension : CM (complete main)
Format settings, Endianness : Big
Codec ID : A_AC3
Duration : 2h 47mn
Bit rate mode : Constant
Bit rate : 192 Kbps
Channel(s) : 2 channels
Channel positions : Front: L R
Sampling rate : 48.0 KHz
Frame rate : 31.250 fps (1536 spf)
Compression mode : Lossy
Stream size : 230 MiB (1%)
Title : DUB + Есарев
Language : Russian
Default : No
Forced : No
Audio #3
ID : 4
Format : AC-3
Format/Info : Audio Coding 3
Mode extension : CM (complete main)
Format settings, Endianness : Big
Codec ID : A_AC3
Duration : 2h 47mn
Bit rate mode : Constant
Bit rate : 448 Kbps
Channel(s) : 6 channels
Channel positions : Front: L C R, Side: L R, LFE
Sampling rate : 48.0 KHz
Frame rate : 31.250 fps (1536 spf)
Compression mode : Lossy
Stream size : 538 MiB (3%)
Title : Д.Есарев
Language : Russian
Default : No
Forced : No
Audio #4
ID : 5
Format : AC-3
Format/Info : Audio Coding 3
Mode extension : CM (complete main)
Format settings, Endianness : Big
Codec ID : A_AC3
Duration : 2h 47mn
Bit rate mode : Constant
Bit rate : 448 Kbps
Channel(s) : 6 channels
Channel positions : Front: L C R, Side: L R, LFE
Sampling rate : 48.0 KHz
Frame rate : 31.250 fps (1536 spf)
Compression mode : Lossy
Stream size : 538 MiB (3%)
Title : А.Матвеев
Language : Russian
Default : No
Forced : No
Audio #5
ID : 6
Format : DTS
Format/Info : Digital Theater Systems
Mode : 16
Format settings, Endianness : Big
Codec ID : A_DTS
Duration : 2h 47mn
Bit rate mode : Constant
Bit rate : 1 509 Kbps
Channel(s) : 6 channels
Channel positions : Front: L C R, Side: L R, LFE
Sampling rate : 48.0 KHz
Frame rate : 93.750 fps (512 spf)
Bit depth : 24 bits
Compression mode : Lossy
Delay relative to video : 11ms
Stream size : 1.77 GiB (12%)
Language : English
Default : No
Forced : No
Text #1
ID : 7
Format : UTF-8
Codec ID : S_TEXT/UTF8
Codec ID/Info : UTF-8 Plain Text
Title : Full Матвеев
Language : Russian
Default : No
Forced : No
Text #2
ID : 8
Format : UTF-8
Codec ID : S_TEXT/UTF8
Codec ID/Info : UTF-8 Plain Text
Title : Full
Language : English
Default : No
Forced : No
Menu
00:00:00.000 : en:Chapter 01
00:04:33.523 : en:Chapter 02
00:11:36.112 : en:Chapter 03
00:22:01.361 : en:Chapter 04
00:35:02.433 : en:Chapter 05
00:43:31.900 : en:Chapter 06
00:52:12.212 : en:Chapter 07
00:59:04.499 : en:Chapter 08
01:08:30.314 : en:Chapter 09
01:16:10.857 : en:Chapter 10
01:25:18.446 : en:Chapter 11
01:35:06.492 : en:Chapter 12
01:42:20.175 : en:Chapter 13
01:50:33.335 : en:Chapter 14
01:59:32.498 : en:Chapter 15
02:06:43.053 : en:Chapter 16
02:13:26.623 : en:Chapter 17
02:19:59.724 : en:Chapter 18
02:24:17.023 : en:Chapter 19
02:34:08.113 : en:Chapter 20
02:39:38.026 : en:Chapter 21
02:43:22.751 : en:Chapter 22
02:47:44.679 : en:Chapter 23

Скриншоты

Релиз подготовлен R.G. Gamers



Последний раз редактировалось: Vlad7667 (2016-03-09 22:37), всего редактировалось 1 раз

Создавать темы 09-Мар-2016 21:09

[Профиль]  [ЛС] 

kat222000

Стаж: 6 лет 7 месяцев

Сообщений: 608

Симпатии: 1055

Vlad7667, одну аудио дорогу пропустили в другой 2ch, а не 6ch как вами заявлено!

Создавать темы 09-Мар-2016 22:22

[Профиль]  [ЛС] 

Vlad7667 ®

Стаж: 5 лет 1 месяц

Сообщений: 196

Симпатии: 187

о кей,исправил

Создавать темы 09-Мар-2016 22:38

[Профиль]  [ЛС] 
Показать сообщения:    
Ответить на тему

Текущее время: 21-Ноя 11:26

Часовой пояс: UTC + 5



Вы не можете начинать темы
Вы не можете отвечать на сообщения
Вы не можете редактировать свои сообщения
Вы не можете удалять свои сообщения
Вы не можете голосовать в опросах
Вы не можете прикреплять файлы к сообщениям
Вы не можете скачивать файлы