2001 год: Космическая одиссея / 2001: A Space Odyssey (Стэнли Кубрик) [1968, США, Великобритания, фантастика, детектив, приключения, BDRip-AVC] Dub + MVO + DVO + AVO + Original (Eng) + Sub (Rus, Eng)

Ответить на тему
 

lotto ®

Стаж: 7 лет 9 месяцев

Сообщений: 221

Симпатии: 409

2001 год: Космическая одиссея / 2001: A Space Odyssey
«the time is now. [2001 re-release]»
-- Страна: США, Великобритания
Жанр: фантастика, детектив, приключения
Год выпуска: 1968
Продолжительность: 02:28:52
Перевод: Профессиональный (дублированный)
Cубтитры: русские
Оригинальная аудиодорожка: английский--Режиссер: Стэнли Кубрик
В ролях: Кейр Дуллеа, Гэри Локвуд, Уильям Сильвестр, Дэниэл Риктер, Леонард Росситер, Маргарет Тайзэк, Роберт Битти, Шон Салливан, Дуглас Рэйн, Фрэнк Миллер--Описание: Кто мы? Какое место мы занимаем во Вселенной? Эти вопросы стоят перед героями фильма. Экипаж космического корабля С. С. Дискавери - капитаны Дэйв Боумэн, Фрэнк Пул и их бортовой компьютер ХЭЛ-9000 - должны исследовать район галактики и понять, почему инопланетяне следят за Землей. На этом пути их ждет множество неожиданных открытий...--Качество видео: BDRip-AVC
Формат видео: MKV
Видео: H264 1024x460 23.974fps 2200 kbps
Аудио: AAC 48000Hz stereo 157 kbps (русский, дублированный)
Аудио 2: AAC 48000Hz stereo 156 kbps (русский, многоголосый)
Аудио 3: AAC 48000Hz stereo 155 kbps (русский, двухголосый)
Аудио 4: AAC 48000Hz stereo 144 kbps (русский, авторский одноголосый) Гаврилов
Аудио 4: AAC 48000Hz stereo 164 kbps (оригинал)
Формат субтитров: softsub (SRT)

MediaInfo

General
Complete name : 2001 - A Space Odyssey.BDRip-AVC.mkv
Format : Matroska
Format version : Version 4 / Version 2
File size : 3.10 GiB
Duration : 2h 28mn
Overall bit rate : 2 979 Kbps
Encoded date : UTC 2016-03-11 07:21:11
Writing application : mkvmerge v7.9.0 ('Birds') 32bit
Writing library : libebml v1.3.1 + libmatroska v1.4.2
Video
ID : 1
Format : AVC
Format/Info : Advanced Video Codec
Format profile : [email protected]
Format settings, CABAC : Yes
Format settings, ReFrames : 10 frames
Codec ID : V_MPEG4/ISO/AVC
Duration : 2h 28mn
Bit rate : 2 200 Kbps
Width : 1 024 pixels
Height : 460 pixels
Display aspect ratio : 2.226
Frame rate mode : Constant
Frame rate : 23.976 (24000/1001) fps
Color space : YUV
Chroma subsampling : 4:2:0
Bit depth : 8 bits
Scan type : Progressive
Bits/(Pixel*Frame) : 0.195
Stream size : 2.29 GiB (74%)
Writing library : x264 core 130 r2273 b3065e6
Encoding settings : cabac=1 / ref=10 / deblock=1:-2:-1 / analyse=0x3:0x113 / me=umh / subme=10 / psy=1 / psy_rd=1.00:0.00 / mixed_ref=1 / me_range=32 / chroma_me=1 / trellis=2 / 8x8dct=1 / cqm=0 / deadzone=21,11 / fast_pskip=1 / chroma_qp_offset=-2 / threads=6 / lookahead_threads=1 / sliced_threads=0 / nr=0 / decimate=1 / interlaced=0 / bluray_compat=0 / constrained_intra=0 / bframes=14 / b_pyramid=2 / b_adapt=2 / b_bias=0 / direct=1 / weightb=1 / open_gop=0 / weightp=2 / keyint=240 / keyint_min=24 / scenecut=40 / intra_refresh=0 / rc_lookahead=40 / rc=2pass / mbtree=1 / bitrate=2200 / ratetol=1.0 / qcomp=0.60 / qpmin=0 / qpmax=69 / qpstep=4 / cplxblur=20.0 / qblur=0.5 / ip_ratio=1.40 / aq=1:1.00
Language : English
Default : Yes
Forced : No
Color range : Limited
Color primaries : BT.709
Transfer characteristics : BT.709
Matrix coefficients : BT.709
Audio #1
ID : 2
Format : AAC
Format/Info : Advanced Audio Codec
Format profile : LC
Codec ID : A_AAC
Duration : 2h 28mn
Bit rate : 157 Kbps
Channel(s) : 2 channels
Channel positions : Front: L R
Sampling rate : 48.0 KHz
Frame rate : 46.875 fps (1024 spf)
Compression mode : Lossy
Stream size : 167 MiB (5%)
Title : DUB 48 KHz 2 ch 157 Kbps
Language : Russian
Default : Yes
Forced : No
Audio #2
ID : 3
Format : AAC
Format/Info : Advanced Audio Codec
Format profile : LC
Codec ID : A_AAC
Duration : 2h 28mn
Bit rate : 156 Kbps
Channel(s) : 2 channels
Channel positions : Front: L R
Sampling rate : 48.0 KHz
Frame rate : 46.875 fps (1024 spf)
Compression mode : Lossy
Stream size : 166 MiB (5%)
Title : MVO 48 KHz 2 ch 156 Kbps
Language : Russian
Default : No
Forced : No
Audio #3
ID : 4
Format : AAC
Format/Info : Advanced Audio Codec
Format profile : LC
Codec ID : A_AAC
Duration : 2h 28mn
Bit rate : 155 Kbps
Channel(s) : 2 channels
Channel positions : Front: L R
Sampling rate : 48.0 KHz
Frame rate : 46.875 fps (1024 spf)
Compression mode : Lossy
Stream size : 165 MiB (5%)
Title : DVO 48 KHz 2 ch 155 Kbps
Language : Russian
Default : No
Forced : No
Audio #4
ID : 5
Format : AAC
Format/Info : Advanced Audio Codec
Format profile : LC
Codec ID : A_AAC
Duration : 2h 28mn
Bit rate : 144 Kbps
Channel(s) : 2 channels
Channel positions : Front: L R
Sampling rate : 48.0 KHz
Frame rate : 46.875 fps (1024 spf)
Compression mode : Lossy
Delay relative to video : 20ms
Stream size : 153 MiB (5%)
Title : AVO (Gavrilov) 48 KHz 2 ch 145 Kbps
Language : Russian
Default : No
Forced : No
Audio #5
ID : 6
Format : AAC
Format/Info : Advanced Audio Codec
Format profile : LC
Codec ID : A_AAC
Duration : 2h 28mn
Bit rate : 164 Kbps
Channel(s) : 2 channels
Channel positions : Front: L R
Sampling rate : 48.0 KHz
Frame rate : 46.875 fps (1024 spf)
Compression mode : Lossy
Stream size : 175 MiB (6%)
Title : Original 48 KHz 2 ch 164 Kbps
Language : English
Default : No
Forced : No
Text #1
ID : 7
Format : UTF-8
Codec ID : S_TEXT/UTF8
Codec ID/Info : UTF-8 Plain Text
Duration : 1h 53mn
Bit rate : 49 bps
Count of elements : 650
Stream size : 40.9 KiB (0%)
Title : full
Language : Russian
Default : Yes
Forced : No
Text #2
ID : 8
Format : UTF-8
Codec ID : S_TEXT/UTF8
Codec ID/Info : UTF-8 Plain Text
Duration : 1h 48mn
Bit rate : 32 bps
Count of elements : 649
Stream size : 25.7 KiB (0%)
Title : full
Language : English
Default : No
Forced : No

Скриншот c названием фильма

Скриншоты





Создавать темы 11-Мар-2016 12:50

[Профиль]  [ЛС] 

ruhal

Стаж: 2 года 6 месяцев

Сообщений: 1181

Симпатии: 1836

Фильм - шедевр. Всего Кубрика нету?

Создавать темы 11-Мар-2016 18:18

[Профиль]  [ЛС] 

lotto ®

Стаж: 7 лет 9 месяцев

Сообщений: 221

Симпатии: 409

969637Фильм - шедевр. Всего Кубрика нету?
У Кубрика мне нравится два фильма Космическая одиссея и Доктор Стрейнджлав.
Могу выложить второй, если будет интересно.

Создавать темы 12-Мар-2016 13:30

[Профиль]  [ЛС] 

Passenger

Стаж: 2 года 7 месяцев

Сообщений: 28

Симпатии: 3

У Кубрика мне нравится два фильма Космическая одиссея и Доктор Стрейнджлав.
Аналогично, но добавлю третьим "Заводной апельсин".

Создавать темы 12-Мар-2016 14:52

[Профиль]  [ЛС] 

ruhal

Стаж: 2 года 6 месяцев

Сообщений: 1181

Симпатии: 1836

969754У Кубрика мне нравится два фильма Космическая одиссея и Доктор Стрейнджлав.
А как же Сияние, Цельнометаллическая Оболочка, Спартак? (это мои любимые у Кубрика)

Создавать темы 12-Мар-2016 17:47

[Профиль]  [ЛС] 

lotto ®

Стаж: 7 лет 9 месяцев

Сообщений: 221

Симпатии: 409

ruhal,
Все дело в восприятии, диалектика кинематографа в том, что человек является субъектом, влияющим на объект (кинематограф), отсюда и возникает представление восприятия либо это продукт производства, либо это искусство.
Движение двухсторонние, взаимодействие между обществом и кинематографом, основанное на законе "отрицания отрицания", новое всегда отрицает старое и занимает его место, но постепенно уже само превращается из нового в старое и отрицается все более новым.
Сегодня превалирует потребительское представление, что кино это товар.
Субъективно у Кубрика только два фильма полностью подходят под понятие кинематограф, как один из видов искусства. Все остальное является товаром.
Есть фильм Стенли Кубрика, вызывающий противоречивые чувства, в основе которого лежит отличный роман - Тропы Славы.

Создавать темы 12-Мар-2016 20:31

[Профиль]  [ЛС] 
Показать сообщения:    
Ответить на тему

Текущее время: 17-Окт 14:30

Часовой пояс: UTC + 5



Вы не можете начинать темы
Вы не можете отвечать на сообщения
Вы не можете редактировать свои сообщения
Вы не можете удалять свои сообщения
Вы не можете голосовать в опросах
Вы не можете прикреплять файлы к сообщениям
Вы не можете скачивать файлы