Запретная Зона 3D / Bunker of the Dead (Маттиас Олоф Ейх) [2015, Германия, Ужасы, боевик, комедия,WEBRip] [Чистый звук]

Ответить на тему
 

ruhal ®

Стаж: 2 года 4 месяца

Сообщений: 1182

Симпатии: 1836

- -Запретная Зона 3D / Bunker of the Dead-"...а зомби здесь тихие"- Страна: Германия
Жанр: Ужасы, боевик, комедия
Год выпуска: 2015
Продолжительность: 01:13:54-Перевод: Профессиональный (дублированный) [Чистый звук]
Cубтитры: нет-Режиссер: Маттиас Олоф Ейх-В ролях: Сарита Брэдли, Патрик Янс, Кристиан Джангуирт, Хуан Карлос Лопез, Эстер Мааб, Андреас Пейп-Описание: Двое друзей Пол и Маркус находят в одном из старых дневников
описание расположения секретного подземного бункера времен Второй Мировой войны.
Вооружившись специальным 3D девайсом, передающим изображение «от первого лица» один из них отправляется на место,
а второй помогает на расстоянии, отслеживая его перемещения и давая правильные советы-Качество видео:WEBRip
Формат видео: AVI
Видео: Xvid 720x304 25fps 2196kbps
Аудио: Dolby AC3 48000Hz stereo 448kbps
-

MediaInfo

General
Complete name : E:\Films\3apretHa1a.3OHa.2015.D.WEBRip.1400MB.avi
Format : AVI
Format/Info : Audio Video Interleave
File size : 1.37 GiB
Duration : 1h 13mn
Overall bit rate : 2 654 Kbps
Writing application : VirtualDubMod 1.5.10.3 | www.virtualdub-fr.org || (build 2550/release)
Writing library : VirtualDubMod build 2550/release
Video
ID : 0
Format : MPEG-4 Visual
Format profile : Advanced [email protected]
Format settings, BVOP : 2
Format settings, QPel : No
Format settings, GMC : No warppoints
Format settings, Matrix : Default (MPEG)
Codec ID : XVID
Codec ID/Hint : XviD
Duration : 1h 13mn
Bit rate : 2 196 Kbps
Width : 720 pixels
Height : 304 pixels
Display aspect ratio : 2.35:1
Frame rate : 25.000 fps
Color space : YUV
Chroma subsampling : 4:2:0
Bit depth : 8 bits
Scan type : Progressive
Compression mode : Lossy
Bits/(Pixel*Frame) : 0.401
Stream size : 1.13 GiB (83%)
Writing library : XviD 1.2.1 (UTC 2008-12-04)
Audio
ID : 1
Format : AC-3
Format/Info : Audio Coding 3
Mode extension : CM (complete main)
Format settings, Endianness : Big
Codec ID : 2000
Duration : 1h 13mn
Bit rate mode : Constant
Bit rate : 448 Kbps
Channel(s) : 2 channels
Channel positions : Front: L R
Sampling rate : 48.0 KHz
Bit depth : 16 bits
Compression mode : Lossy
Stream size : 237 MiB (17%)
Alignment : Split accross interleaves
Interleave, duration : 40 ms (1.00 video frame)
Interleave, preload duration : 500 ms

Скриншот c названием фильма

Скриншоты



Создавать темы 11-Мар-2016 19:47

[Профиль]  [ЛС] 
Показать сообщения:    
Ответить на тему

Текущее время: 22-Авг 00:49

Часовой пояс: UTC + 5



Вы не можете начинать темы
Вы не можете отвечать на сообщения
Вы не можете редактировать свои сообщения
Вы не можете удалять свои сообщения
Вы не можете голосовать в опросах
Вы не можете прикреплять файлы к сообщениям
Вы не можете скачивать файлы