Фруктам 5 лет: концерт в клубе YOTASPACE (15.11.2015), 2015, Россия, Unplugged, HDRip

Ответить на тему
 

JurPrint ®

Стаж: 5 лет

Сообщений: 28

Симпатии: 9

Фруктам 5 лет: концерт в клубе YOTASPACE (15.11.2015)
Страна: Россия
Жанр: Unplugged/ Live Soul
Год выпуска: 2015
Продолжительность: 01:02:46
Доп. информация: Большая премьера! Предлагаем вашему вниманию видеозапись юбилейного концерта группы ФРУКТЫ, который прошел 15 ноября 2015 года в столичном клубе YOTASPACE и был посвящен пятилетию коллектива. Видео включает в себя номера с Полиной Гагариной и Алсу.
Качество видео: HDRip
Формат видео: MP4
Видео: 1280х720, 16:9, 25 fps, AVC
Аудио: AAC, stereo, 126 Kbps

Tracklist

01. Sweet Dreams (Eurythmics)
02. Personal Jesus (Depeche Mode)
03. Beggin' (The Four Seasons)
04. Стыцамен (Иван Дорн)
05. Маруся + Lovin' You (Minnie Riperton)
06. Let's Start the Show
07. Wake Up Call (Maroon 5)
08. Ain't Nobody ft. Полина Гагарина (Rufus & Chaka Khan)
09. Like a Hobo (Charlie Winston)
10. Бали
11. Зимний сон ft. Алсу
12. Grace Kelly (Mika)
13. We Found Love (Rihanna & Calvin Harris)
14. Love Me Again (John Newman)
15. Uptown Funk (Mark Ronson ft. Bruno Mars)
16. Makin' My Way Back Home (Lettuce)

MediaInfo

General
Complete name : D:\Concert\Фруктам 5 лет концерт в YOTASPACE (15.11.2015).mp4
Format : MPEG-4
Format profile : Base Media
Codec ID : isom (isom/iso2/avc1/mp41)
File size : 991 MiB
Duration : 1h 2mn
Overall bit rate : 2 209 Kbps
Writing application : Lavf55.22.100
Video
ID : 1
Format : AVC
Format/Info : Advanced Video Codec
Format profile : [email protected]
Format settings, CABAC : Yes
Format settings, ReFrames : 3 frames
Codec ID : avc1
Codec ID/Info : Advanced Video Coding
Duration : 1h 2mn
Bit rate : 2 077 Kbps
Width : 1 280 pixels
Height : 720 pixels
Display aspect ratio : 16:9
Frame rate mode : Constant
Frame rate : 25.000 fps
Color space : YUV
Chroma subsampling : 4:2:0
Bit depth : 8 bits
Scan type : Progressive
Bits/(Pixel*Frame) : 0.090
Stream size : 932 MiB (94%)
Color range : Limited
Color primaries : BT.709
Transfer characteristics : BT.709
Matrix coefficients : BT.709
Audio
ID : 2
Format : AAC
Format/Info : Advanced Audio Codec
Format profile : LC
Codec ID : 40
Duration : 1h 2mn
Bit rate mode : Constant
Bit rate : 126 Kbps
Channel(s) : 2 channels
Channel positions : Front: L R
Sampling rate : 44.1 KHz
Frame rate : 43.066 fps (1024 spf)
Compression mode : Lossy
Stream size : 56.4 MiB (6%)
Default : Yes
Alternate group : 1

Скриншоты



Последний раз редактировалось: JurPrint (2016-03-13 20:44), всего редактировалось 1 раз

Создавать темы 11-Мар-2016 20:48

[Профиль]  [ЛС] 
Показать сообщения:    
Ответить на тему

Текущее время: 18-Окт 20:01

Часовой пояс: UTC + 5



Вы не можете начинать темы
Вы не можете отвечать на сообщения
Вы не можете редактировать свои сообщения
Вы не можете удалять свои сообщения
Вы не можете голосовать в опросах
Вы не можете прикреплять файлы к сообщениям
Вы не можете скачивать файлы