Fifth Harmony - Worth It ft. Kid Ink, [2015, США, Pop Dance, HDRip-AVC]

Ответить на тему
 

ИЛЬЯС АЛЛАЯРОВ ®

Стаж: 2 года 6 месяцев

Сообщений: 13

Симпатии: 2

Fifth Harmony - Worth It ft. Kid Ink
Страна: США
Жанр: Pop Dance
Год выпуска: 2015
Продолжительность: 00:03:44
Качество видео: HDRip-AVC
Формат видео: AVI
Видео: MPEG4 Video (H264) 1920x1080 23.976fps 8145kbps
Аудио: MP3 44100Hz stereo 192kbps [A: mp3, 44100 Hz, stereo, 192 kb/s

MediaInfo

Format : AVI
Format/Info : Audio Video Interleave
File size : 224 MiB
Duration : 3mn 44s
Overall bit rate : 8 346 Kbps
Writing application : Lavf51.12.1
Video
ID : 0
Format : AVC
Format/Info : Advanced Video Codec
Format profile : [email protected]
Format settings, CABAC : No
Format settings, ReFrames : 1 frame
Format settings, GOP : M=1, N=12
Codec ID : H264
Duration : 3mn 44s
Bit rate : 8 144 Kbps
Width : 1 920 pixels
Height : 1 080 pixels
Display aspect ratio : 16:9
Frame rate mode : Variable
Frame rate : 23.976 fps
Color space : YUV
Chroma subsampling : 4:2:0
Bit depth : 8 bits
Scan type : Progressive
Bits/(Pixel*Frame) : 0.164
Stream size : 218 MiB (98%)
Audio
ID : 1
Format : MPEG Audio
Format version : Version 1
Format profile : Layer 3
Mode : Joint stereo
Mode extension : MS Stereo
Codec ID : 55
Codec ID/Hint : MP3
Duration : 3mn 44s
Bit rate mode : Constant
Bit rate : 192 Kbps
Channel(s) : 2 channels
Sampling rate : 44.1 KHz
Compression mode : Lossy
Stream size : 5.14 MiB (2%)
Alignment : Aligned on interleaves
Interleave, duration : 26 ms (0.63 video frame)
Writing library : LAME3.97

Скриншоты

Создавать темы 11-Мар-2016 21:28

[Профиль]  [ЛС] 
Показать сообщения:    
Ответить на тему

Текущее время: 22-Ноя 16:17

Часовой пояс: UTC + 5



Вы не можете начинать темы
Вы не можете отвечать на сообщения
Вы не можете редактировать свои сообщения
Вы не можете удалять свои сообщения
Вы не можете голосовать в опросах
Вы не можете прикреплять файлы к сообщениям
Вы не можете скачивать файлы