На гребне волны / Point Break (Эриксон Кор) [2015, США, Германия, Китай, Боевик, Триллер, Криминал, HDRip] [Лицензия]

Ответить на тему
 

ruhal ®

Стаж: 2 года 6 месяцев

Сообщений: 1181

Симпатии: 1836

- -На гребне волны / Point Break-
Страна: США, Германия, Китай
Жанр: Боевик, Триллер, Криминал
Год выпуска: 2015
Продолжительность: 01:49:37-Перевод: Профессиональный (дублированный)[Лицензия]
Cубтитры: нет-Режиссер: Эриксон Кор-В ролях: Люк Брейси, Эдгар Рамирес, Тереза Палмер, Макс Тириот, Рэй Уинстон,
Тобиас Зантельман, Джеймс ЛеГрос, Делрой Линдо, Боджесси Кристофер, Клеменс Шик-Описание: Джонни — молодой агент ФБР, специализирующийся на работе под прикрытием.
Он не раз выходил из самых сложных ситуаций, всегда доделывая свою работу до конца.
Его очередным заданием становится проникновение в банду воров. Однако эти люди не обычные грабители:
их главным отличием от остальных является увлечение экстремальными видами спорта.
Свои умения они используют при каждом новом ограблении, и стать частью их команды очень непросто.
Чтобы войти в банду и остановить преступников, Джонни придется доказать, что он такой же как они, а для этого ему не раз предстоит рискнуть собственной жизнью.-Качество видео: HDRip
Формат видео: AVI
Видео: Xvid 720x304 23.976fps 1378kbps
Аудио: Dolby AC3 48000Hz 6ch 448kbps
-

MediaInfo

General
Complete name : E:\Films\Na.grebnE.2O15.D.HDRip.1.46Gb.avi
Format : AVI
Format/Info : Audio Video Interleave
File size : 1.46 GiB
Duration : 1h 53mn
Overall bit rate : 1 836 Kbps
Writing application : VirtualDubMod 1.5.10.2 (build 2540/release)
Writing library : VirtualDubMod build 2540/release
Video
ID : 0
Format : MPEG-4 Visual
Format profile : Advanced Simple@L5
Format settings, BVOP : 2
Format settings, QPel : No
Format settings, GMC : No warppoints
Format settings, Matrix : Custom
Codec ID : XVID
Codec ID/Hint : XviD
Duration : 1h 53mn
Bit rate : 1 379 Kbps
Width : 720 pixels
Height : 304 pixels
Display aspect ratio : 2.35:1
Frame rate : 23.976 fps
Color space : YUV
Chroma subsampling : 4:2:0
Bit depth : 8 bits
Scan type : Progressive
Compression mode : Lossy
Bits/(Pixel*Frame) : 0.263
Stream size : 1.10 GiB (75%)
Writing library : XviD 1.2.1 (UTC 2008-12-04)
Audio
ID : 1
Format : AC-3
Format/Info : Audio Coding 3
Mode extension : CM (complete main)
Format settings, Endianness : Big
Codec ID : 2000
Duration : 1h 53mn
Bit rate mode : Constant
Bit rate : 448 Kbps
Channel(s) : 6 channels
Channel positions : Front: L C R, Side: L R, LFE
Sampling rate : 48.0 KHz
Bit depth : 16 bits
Compression mode : Lossy
Stream size : 365 MiB (24%)
Alignment : Split accross interleaves
Interleave, duration : 42 ms (1.00 video frame)
Interleave, preload duration : 500 ms

Скриншот c названием фильма

Скриншоты



Создавать темы 12-Мар-2016 20:31

[Профиль]  [ЛС] 

mp1988

Стаж: 6 лет 8 месяцев

Сообщений: 607

Симпатии: 971

помогу с раздачей

Комментарий от ruhal


aa

Создавать темы 12-Мар-2016 20:56

[Профиль]  [ЛС] 

gold_man

Стаж: 8 лет 1 месяц

Сообщений: 162

Симпатии: 18

поцыки как фильм ? отпишитесь

Создавать темы 12-Мар-2016 22:53

[Профиль]  [ЛС] 

Theofrast

Стаж: 6 лет 8 месяцев

Сообщений: 33

Симпатии: 30

Это же римейк фильма Бигелоу ?
Качаем !

Создавать темы 12-Мар-2016 23:32

[Профиль]  [ЛС] 

ildar0781

Стаж: 2 года 1 месяц

Сообщений: 4

Симпатии: 2

как фильм?качать стоит? кто смотрел?

Создавать темы 13-Мар-2016 11:18

[Профиль]  [ЛС] 

JaapStam

Стаж: 1 год 11 месяцев

Сообщений: 9

Симпатии: 2

Оригинал в 100 раз лучше. ИМХО.

Создавать темы 13-Мар-2016 11:59

[Профиль]  [ЛС] 

Theofrast

Стаж: 6 лет 8 месяцев

Сообщений: 33

Симпатии: 30

Оригинал с Ривзом, Бьюзи и Суэйзи - теплый и ламповый.

Создавать темы 15-Мар-2016 20:22

[Профиль]  [ЛС] 

Alisher17771

Стаж: 1 год 11 месяцев

Сообщений: 8

Симпатии: 1

фильм просто класс давно искал в качестве, стою на раздаче

Создавать темы 16-Мар-2016 09:42

[Профиль]  [ЛС] 

AKMal5252

Стаж: 5 лет 7 месяцев

Сообщений: 20

Симпатии: 2

В целом фильм не плохой , режисеру нужно было больше времени на фильм , концовка не понятная , да и для такого фильма побольше времени надо было фильм как минимум должен был длиться под 4 часа , тогда было бы интересно , А тут перерыв между завораживающими моментами буквально минуты , фильм выглядит тупо как очередной ролик мотивации , режисеру дизлайк , а актеры хорошие , так что думаете стоит ли качать

Создавать темы 16-Мар-2016 10:19

[Профиль]  [ЛС] 

Григорий К

Стаж: 5 лет 1 месяц

Сообщений: 569

Симпатии: 284

Идеально для просмотра в 3D. Исключительно из-за экшена и атмосферы вокруг. Сюжета нет. Игры актеров нет. Тёлки страшные. Оставил исключительно из-за эффектно показанного экстрима и всё такое. Если бы сняли его в 360 градусов, я бы даже купил лицензионный вариант.

Создавать темы 03-Авг-2016 22:25

[Профиль]  [ЛС] 

black_angel_roman

Стаж: 4 года 6 месяцев

Сообщений: 25

Симпатии: 2

Раздайте пожалуйста!! уже 2 неделя немогу скачать кино.

Создавать темы 25-Ноя-2016 21:55

[Профиль]  [ЛС] 

abbos21

Стаж: 9 месяцев 30 дней

Сообщений: 5

Раздайте пожалуйста!!

Создавать темы 24-Дек-2016 01:27

[Профиль]  [ЛС] 

abbos21

Стаж: 9 месяцев 30 дней

Сообщений: 5

Раздайте пожалуйста!! уже 2 неделя немогу скачать кино.

Создавать темы 25-Дек-2016 22:08

[Профиль]  [ЛС] 
Показать сообщения:    
Ответить на тему

Текущее время: 20-Окт 08:12

Часовой пояс: UTC + 5



Вы не можете начинать темы
Вы не можете отвечать на сообщения
Вы не можете редактировать свои сообщения
Вы не можете удалять свои сообщения
Вы не можете голосовать в опросах
Вы не можете прикреплять файлы к сообщениям
Вы не можете скачивать файлы