Острие стрелы / Arrowhead (Джесси О’Брайэн / Jesse O'Brien) [2016, Австралия, Фантастика, боевик, приключения, BDRip] (VO : Вадим Назаров)

Ответить на тему
 

UZM ®

Стаж: 5 лет 2 месяца

Сообщений: 169

Симпатии: 189

Острие стрелы / Arrowhead
Страна: Австралия
Жанр: Фантастика, боевик, приключения
Год выпуска: 2016
Продолжительность: 01:38:58
Перевод: Одноголосый закадровый Доп. инфо о переводе Вадим Назаров
Cубтитры: нет
Режиссер: Джесси О’Брайэн / Jesse O'Brien
В ролях: Кристофер Кирби, Дэн Мор, Шон Микаллеф, Алейша Грот, Джек Уайлд, Марк Редпаф, Акира Брэдли, Адам Тухи
Описание: Далёкое будущее. На Земле царит диктатура группировки под предводительством Тобиаса Хатча и в планах у него колонизировать Вселенную. Опальному летчику Kею Кортленду в обмен на свободу предложено возглавить захватническую межпланетную операцию на корабле "Arrowhead". Кей вынужден согласиться, но терпит крушение на неизвестной планете, которая лишь на первый взгляд кажется необитаемой...
Качество видео: BDRip
Формат видео: AVI
Видео: MPEG-4, Xvid 720x400 24fps 1660kbps
Аудио: Dolby AC3 48,0Hz 6ch 448kbps

MediaInfo

General
Complete name : D:\Кино\Фильмы 2016\Arrowhead.2016.BDRip.avi
Format : AVI
Format/Info : Audio Video Interleave
File size : 1.46 GiB
Duration : 1h 38mn
Overall bit rate : 2 118 Kbps
Writing application : VirtualDubMod 1.5.10.2 (build 2540/release)
Writing library : VirtualDubMod build 2540/release
Video
ID : 0
Format : MPEG-4 Visual
Format profile : Advanced [email protected]
Format settings, BVOP : 1
Format settings, QPel : No
Format settings, GMC : No warppoints
Format settings, Matrix : Default (MPEG)
Codec ID : XVID
Codec ID/Hint : XviD
Duration : 1h 38mn
Bit rate : 1 661 Kbps
Width : 720 pixels
Height : 400 pixels
Display aspect ratio : 16:9
Frame rate : 24.000 fps
Color space : YUV
Chroma subsampling : 4:2:0
Bit depth : 8 bits
Scan type : Progressive
Compression mode : Lossy
Bits/(Pixel*Frame) : 0.240
Stream size : 1.15 GiB (78%)
Writing library : XviD 67
Audio
ID : 1
Format : AC-3
Format/Info : Audio Coding 3
Mode extension : CM (complete main)
Format settings, Endianness : Big
Codec ID : 2000
Duration : 1h 38mn
Bit rate mode : Constant
Bit rate : 448 Kbps
Channel(s) : 6 channels
Channel positions : Front: L C R, Side: L R, LFE
Sampling rate : 48.0 KHz
Compression mode : Lossy
Stream size : 317 MiB (21%)
Alignment : Split accross interleaves
Interleave, duration : 42 ms (1.00 video frame)
Interleave, preload duration : 500 ms

Скриншот c названием фильма

Скриншоты

,
,
,

Создавать темы 12-Мар-2016 21:41

[Профиль]  [ЛС] 

Dracula

Стаж: 7 лет 2 месяца

Сообщений: 5

Симпатии: 1

Случаем не тв 3 ???

Создавать темы 13-Мар-2016 12:01

[Профиль]  [ЛС] 

UZM ®

Стаж: 5 лет 2 месяца

Сообщений: 169

Симпатии: 189

Нет

Создавать темы 13-Мар-2016 12:34

[Профиль]  [ЛС] 

axeman

Стаж: 4 года 9 месяцев

Сообщений: 380

Симпатии: 50

тв 4 ?

Создавать темы 13-Мар-2016 12:54

[Профиль]  [ЛС] 

ruhal

Стаж: 2 года 4 месяца

Сообщений: 1182

Симпатии: 1836

Dracula, axeman, Хватит Флудить!

Создавать темы 13-Мар-2016 15:07

[Профиль]  [ЛС] 

DilshodLOOCK

Стаж: 5 лет 6 месяцев

Сообщений: 8

Pachemu skorist nizkiy, Pajalyusta Brat i drugi day skorist!

Создавать темы 13-Мар-2016 19:51

[Профиль]  [ЛС] 

UZM ®

Стаж: 5 лет 2 месяца

Сообщений: 169

Симпатии: 189

Проблема в электричесте в июле месяча всё нармализуется. Прошу прощегия друзя! Электричества дают 4 на 2.

Создавать темы 13-Мар-2016 22:15

[Профиль]  [ЛС] 
Показать сообщения:    
Ответить на тему

Текущее время: 19-Авг 02:49

Часовой пояс: UTC + 5



Вы не можете начинать темы
Вы не можете отвечать на сообщения
Вы не можете редактировать свои сообщения
Вы не можете удалять свои сообщения
Вы не можете голосовать в опросах
Вы не можете прикреплять файлы к сообщениям
Вы не можете скачивать файлы