Обычный человек / A Common Man (Чандрам Рутнам / Chandran Rutnam) [2012, США, Боевик,триллер, HDRip] (VO)

Ответить на тему
 

эми ®

Стаж: 1 год 10 месяцев

Сообщений: 8

Симпатии: 2

Обычный человек / A Common Man
Страна: США
Жанр: Боевик,триллер
Год выпуска: 2012
Продолжительность: 01:25:46
Перевод: Одноголосый закадровый
Cубтитры: нет
Режиссер: Чандрам Рутнам / Chandran Rutnam
В ролях: Бен Кингсли, Бен Кросс, Патрик Рутнам, Сандо Харрис.
Описание: Справедливость общества, которая должна быть справедливостью и для отдельных людей, часто не является таковой. И тогда любой обычный человек в борьбе за свою справедливость может быть вынужден стать террористом — поставить себя вне закона. Этот фильм об одном из таких частных примеров, когда человек, издевательски хорошо знающий систему, оригинальным способом решил добиться своего…
Качество видео: HDRip
Формат видео: AVI
Видео: Xvid 640x352 23.976fps 999kbps
Аудио: MP3 48000Hz stereo 128kbps

MediaInfo

General
Complete name :Obychnyi chelovek.2012.L1.HDRip.avi
Format : AVI
Format/Info : Audio Video Interleave
File size : 697 MiB
Duration : 1h 25mn
Overall bit rate : 1 137 Kbps
Writing application : VirtualDubMod 1.5.10.2 (build 2540/release)
Writing library : VirtualDubMod build 2540/release
Video
ID : 0
Format : MPEG-4 Visual
Format profile : Advanced Simple@L5
Format settings, BVOP : Yes
Format settings, QPel : No
Format settings, GMC : No warppoints
Format settings, Matrix : Default (H.263)
Codec ID : XVID
Codec ID/Hint : XviD
Duration : 1h 25mn
Bit rate : 999 Kbps
Width : 640 pixels
Height : 352 pixels
Display aspect ratio : 16:9
Frame rate : 23.976 fps
Color space : YUV
Chroma subsampling : 4:2:0
Bit depth : 8 bits
Scan type : Progressive
Compression mode : Lossy
Bits/(Pixel*Frame) : 0.185
Stream size : 613 MiB (88%)
Writing library : XviD 1.2.1 (UTC 2008-12-04)
Audio
ID : 1
Format : MPEG Audio
Format version : Version 1
Format profile : Layer 3
Codec ID : 55
Codec ID/Hint : MP3
Duration : 1h 25mn
Bit rate mode : Constant
Bit rate : 128 Kbps
Channel(s) : 2 channels
Sampling rate : 48.0 KHz
Compression mode : Lossy
Stream size : 78.5 MiB (11%)
Alignment : Aligned on interleaves
Interleave, duration : 42 ms (1.00 video frame)
Interleave, preload duration : 504 ms

Скриншот c названием фильма

Скриншоты





Последний раз редактировалось: эми (2016-03-13 12:57), всего редактировалось 1 раз

Создавать темы 13-Мар-2016 02:55

[Профиль]  [ЛС] 

kat222000

Стаж: 6 лет 6 месяцев

Сообщений: 608

Симпатии: 1055

эми, Скриншоты в студию!
Как сделать скриншоты? http://www.tas-ix.net/viewtopic.php?t=41311

Создавать темы 13-Мар-2016 07:33

[Профиль]  [ЛС] 
Показать сообщения:    
Ответить на тему

Текущее время: 23-Окт 09:08

Часовой пояс: UTC + 5



Вы не можете начинать темы
Вы не можете отвечать на сообщения
Вы не можете редактировать свои сообщения
Вы не можете удалять свои сообщения
Вы не можете голосовать в опросах
Вы не можете прикреплять файлы к сообщениям
Вы не можете скачивать файлы