Безымянный палец / Перст любви / L'annulaire (Дайан Бертран / Diane Bertrand) [2005 г., Франция, Германия, Великобритания, драма, DVDRip-AVC] (MVO)

Ответить на тему
 

kat222000 ®

Стаж: 6 лет 7 месяцев

Сообщений: 608

Симпатии: 1055

Безымянный палец / Перст любви / L'annulaire -Страна: Франция, Германия, Великобритания
Жанр: драма
Год выпуска: 2005
Продолжительность: 01:40:11
Перевод: Профессиональный (многоголосый, закадровый)
Субтитры: английские (srt, UTF-8), испанские (srt, UTF-8)
Навигация по главам: есть-Режиссер: Дайан Бертран / Diane Bertrand-В ролях: Ольга Куриленко (Iris), Марк Барбе (L'homme du laboratoire), Стипе Эрцег (Le marin), Эдит Скоб (La dame du 223), Ханнс Цишлер (Le patron de l'hôtel), Сотиги Куяте (Le cireur de chaussures), Дория Ашур (La jeune fille aux champignons), Анн Бенуа (La dame à la partition), Луис Девинтер (L'enfant), Анна Фассио (Madame Ryen), Оливье Клавери (Monsieur Ryen), Mayutan Arumaithurai (Le docker hindou)-Описание: Потеряв работу, юная и прекрасная Ирис получает должность ассистентки в очень необычной лаборатории. Не отдавая себе отчета в происходящем, она вовлекается в странные отношения со своим боссом, полные эротизма, страсти и мистики…- -Возраст: зрителям, достигшим 16 лет-Рейтинг MPAA: лицам до 17 лет обязательно присутствие взрослого-Качество видео: DVDRip-AVC
Формат видео: MKV
Видео кодек: AVC
Аудио кодек: AC3
Видео: 1018x432 (2.35:1), 25 fps, AVC ~1 965 kbps, 0,254 bit/pixel
Аудио: 48 kHz, AC3 Dolby Digital, 3/2 (L,C,R,l,r) + LFE ch, ~448.00 kbps avg (Русский | MVO)-

〤 ОтчетМедиаИнфо 〤

General
Unique ID : 171448704300776368293726344031364930259 (0x80FBD1C12DCB1B50A8D3B32AD9AF5AD3)
Формат : Matroska
Формат version : Version 2
Размер файла : 1.86 GiB
Длительность : 1h 40mn
Общий Битрейт : 2 659 Kbps
Movie name : Перст любви / L'annulaire (2005)
Encoded date : UTC 2010-08-12 15:42:59
Создано приложением : mkvmerge v3.3.0 ('Язык') built on Mar 24 2010 14:59:24
Writing library : libebml v0.8.0 + libmatroska v0.9.0
Attachment : Yes
Video
ID : 1
Формат : AVC
Формат/Info : Advanced Video Кодек
Формат profile : [email protected]
Формат настройки, CABAC : Yes
Формат настройки, ReFrames : 10 frames
Кодек ID : V_MPEG4/ISO/AVC
Длительность : 1h 40mn
Битрейт : 1 966 Kbps
Width : 1018 пикселей
Высота : 432 пикселей
Соотношение кадра : 2.35:1
Частота кадров : 25.000 fps
Цветопередача : YUV
Chroma subsampling : 4:2:0
Разрядность : 8 bits
Тип сканирования : Progressive
Bits/(Pixel*Frame) : 0.254
Размер потока : 1.38 GiB (74%)
Title : Перст любви / L'annulaire (2005) [Geralt iz Rivii]
Writing library : x264 core 104 r1688 0b36c6d
Encoding настройки : cabac=1 / ref=10 / deblock=1:-2:-1 / analyse=0x3:0x133 / me=umh / subme=9 / psy=1 / psy_rd=1.00:0.12 / mixed_ref=1 / me_range=24 / chroma_me=1 / trellis=2 / 8x8dct=1 / cqm=0 / deadzone=21,11 / fast_pskip=1 / chroma_qp_offset=-3 / threads=3 / sliced_threads=0 / nr=0 / decimate=1 / interlaced=0 / constrained_intra=0 / bframes=7 / b_pyramid=2 / b_adapt=2 / b_bias=0 / direct=3 / weightb=1 / open_gop=0 / weightp=2 / keyint=250 / keyint_min=25 / scenecut=40 / intra_refresh=0 / rc=crf / mbtree=0 / crf=18.0 / qcomp=0.60 / qpmin=10 / qpmax=51 / qpstep=4 / ip_ratio=1.40 / pb_ratio=1.30 / aq=2:1.00
Язык : French
Default : Yes
Forced : No
Matrix coefficients : BT.470-6 System B, BT.470-6 System G, BT.601-6 625, BT.1358 625, BT.1700 625 PAL, BT.1700 625 SECAM, IEC 61966-2-4 601
Audio #1
ID : 2
Формат : AC-3
Формат/Info : Audio Coding 3
Расширение режима : CM (complete main)
Кодек ID : A_AC3
Длительность : 1h 40mn
Битрейт mode : Constant
Битрейт : 448 Kbps
Channel(s) : 6 каналов
Channel positions : Front: L C R, Side: L R, LFE
Частота : 48.0 KHz
Разрядность : 16 bits
Режим сжатия : Lossy
Размер потока : 321 MiB (17%)
Title : 48 kHz, AC-3, 5.1 ch, 448 kbps - MVO
Язык : Russian
Default : Yes
Forced : No
Text #1
ID : 4
Формат : UTF-8
Кодек ID : S_TEXT/UTF8
Кодек ID/Info : UTF-8 Plain Text
Язык : English
Default : No
Forced : No
Text #2
ID : 5
Формат : UTF-8
Кодек ID : S_TEXT/UTF8
Кодек ID/Info : UTF-8 Plain Text
Язык : Spanish
Default : No
Forced : No
Menu
00:00:00.000 : en:Opening
00:09:55.680 : en:Very Unusual Laboratory
00:19:48.000 : en:Don't Panic
00:28:50.880 : en:Golden Butterflies
00:35:48.000 : en:Playing a Score
00:44:10.080 : en:Possession of Feet
00:51:36.960 : en:Pleasures I Seek
01:00:58.080 : en:A Date With Costa
01:07:53.280 : en:Bathroom Cool
01:17:23.040 : en:Searching
01:22:04.800 : en:Shoeshine
01:36:49.920 : en:Credits
-

〤 Скриншоты 〤



- © Оформление by kat222000

Создавать темы 13-Мар-2016 12:40

[Профиль]  [ЛС] 

alexey.555

Стаж: 5 лет 7 месяцев

Сообщений: 137

Симпатии: 22

Вот же х...нь, жалко потерянное время на данное творение

Создавать темы 28-Сен-2016 22:44

[Профиль]  [ЛС] 
Показать сообщения:    
Ответить на тему

Текущее время: 24-Ноя 21:53

Часовой пояс: UTC + 5



Вы не можете начинать темы
Вы не можете отвечать на сообщения
Вы не можете редактировать свои сообщения
Вы не можете удалять свои сообщения
Вы не можете голосовать в опросах
Вы не можете прикреплять файлы к сообщениям
Вы не можете скачивать файлы