Хоккей. ЦСКА - Монреаль Канадиенс / CSKA vs Montreal Canadians [1990г, Хоккей, WEB-DLRip]

Ответить на тему
 

beshka666 ®

Стаж: 2 года 3 месяца

Сообщений: 34

Симпатии: 20

CSKA vs Montreal Canadians [18.09.1990]
Год выпуска: 1990
Вид спорта: Хоккей
Участники: ЦСКА - Монреаль Канадиенс
Дата матча: 18.09.1990
Продолжительность: 01:22:36
Язык комментариев: Русский
Описание: Матч из серии Клубы НХЛ против клубов СССР 1990 г.
Доп.информация: Матч запомнился массовой дракой в третьем периоде
Качество: WEB-DLRip
Формат: MP4
Видео кодек: AVC
Аудио кодек: AAC
Видео: MPEG4 Video (H264) 640x480 25fps 616kbps
Аудио: AAC 44100Hz stereo 125kbps

Медиа Инфо

General
Complete name : D:\с диск\торренты\хоккей\CSKA vs Montreal Canadians [18.09.1990] [SD, 480p].mp4
Format : MPEG-4
Format profile : Base Media
Codec ID : isom
File size : 442 MiB
Duration : 1h 22mn
Overall bit rate : 749 Kbps
Writing application : Lavf55.19.104
Video
ID : 1
Format : AVC
Format/Info : Advanced Video Codec
Format profile : [email protected]
Format settings, CABAC : Yes
Format settings, ReFrames : 3 frames
Codec ID : avc1
Codec ID/Info : Advanced Video Coding
Duration : 1h 22mn
Bit rate : 617 Kbps
Width : 640 pixels
Height : 480 pixels
Display aspect ratio : 4:3
Frame rate mode : Constant
Frame rate : 25.000 fps
Color space : YUV
Chroma subsampling : 4:2:0
Bit depth : 8 bits
Scan type : Progressive
Bits/(Pixel*Frame) : 0.080
Stream size : 364 MiB (82%)
Audio
ID : 2
Format : AAC
Format/Info : Advanced Audio Codec
Format profile : LC
Codec ID : 40
Duration : 1h 22mn
Bit rate mode : Constant
Bit rate : 126 Kbps
Channel count : 2 channels
Channel positions : Front: L R
Sampling rate : 44.1 KHz
Compression mode : Lossy
Stream size : 74.2 MiB (17%)

Скриншоты



Создавать темы 13-Мар-2016 20:18

[Профиль]  [ЛС] 
Показать сообщения:    
Ответить на тему

Текущее время: 23-Ноя 10:46

Часовой пояс: UTC + 5



Вы не можете начинать темы
Вы не можете отвечать на сообщения
Вы не можете редактировать свои сообщения
Вы не можете удалять свои сообщения
Вы не можете голосовать в опросах
Вы не можете прикреплять файлы к сообщениям
Вы не можете скачивать файлы