Лига чемпионов. 1/8 финала, ответный матч. Челси - Псж Полный матч [Футбол, TVRip] [2016]

Ответить на тему
 

Eli4455 ®

Стаж: 1 год 8 месяцев

Сообщений: 3

Симпатии: 4

Лига чемпионов. 1/8 финала, ответный матч. Челси - Псж Полный матч / Champions league. 1/8 Final. Chelsea vs Psj Full match / 2016

Вид спорта: Футбол
Год выпуска: 2016
Продолжительность: 02:10:11
Описание: Лига чемпионов. 1/8 финала, ответный матч.9 марта. Лондон. Стадион "Стэмфорд Бридж". Судья - Феликс Брых (Германия).
Отсутствие Терри может стать решающим в этом матче. Справятся ли Иванович и Кэхилл с контратаками парижан? Сумеет ли атака «Челси» навязать борьбу в защите госте? Сможет ли реализовать свои моменты гостевой клуб? Кто будет справа останавливать Азара? Хватит ли позвоночника у Максвелла, которому придется противостоять натиску юркого Виллиана? Исход противостояния могут решить малейшие детали. Нас ждет многообещающий, интригующий и абсолютно не поддающийся прогнозированию матч. Не исключаю при этом гостевого гола «ПСЖ». На их проход сегодня и рекомендую ставить всем, кто желает заработать. Обслужит этот поединок бригада арбитров во главе с Феликсом Брыхом – рефери из Германии (Мюнхен). Для вас в своем виртуальном комментаторском кресле будет работать Козырев Вячеслав! Рад приветствовать всех на игре! Запис на канале UZREPORT TV. Русский комментатор
Доп. информация: Лига чемпионов. 1/8 финала, ответный матч.9 марта. Лондон. Стадион "Стэмфорд Бридж". Судья - Феликс Брых (Германия).
Отсутствие Терри может стать решающим в этом матче. Справятся ли Иванович и Кэхилл с контратаками парижан? Сумеет ли атака «Челси» навязать борьбу в защите госте? Сможет ли реализовать свои моменты гостевой клуб? Кто будет справа останавливать Азара? Хватит ли позвоночника у Максвелла, которому придется противостоять натиску юркого Виллиана? Исход противостояния могут решить малейшие детали. Нас ждет многообещающий, интригующий и абсолютно не поддающийся прогнозированию матч. Не исключаю при этом гостевого гола «ПСЖ». На их проход сегодня и рекомендую ставить всем, кто желает заработать. Обслужит этот поединок бригада арбитров во главе с Феликсом Брыхом – рефери из Германии (Мюнхен). Для вас в своем виртуальном комментаторском кресле будет работать Козырев Вячеслав! Рад приветствовать всех на игре! Запис на канале UZREPORT TV. Русский комментатор
Качество видео: TVRip
Формат видео: TS
Видео: MPEG Video 720x576 (16:9) 25fps
Аудио: MPEG Audio 48000Hz mono 120kbps

MediaInfo

ID : 0 (0x0)
Complete name : D:\Footballs photos\chelsea vs psj\Chelsea vs psj.ts
Format : MPEG-TS
File size : 2.94 GiB
Duration : 2h 10mn
Overall bit rate mode : Variable
Overall bit rate : 3 239 Kbps
Video
ID : 500 (0x1F4)
Menu ID : 1 (0x1)
Format : AVC
Format/Info : Advanced Video Codec
Format profile : [email protected]
Format settings, CABAC : Yes
Format settings, ReFrames : 7 frames
Codec ID : 27
Duration : 2h 10mn
Bit rate mode : Constant
Bit rate : 3 000 Kbps
Width : 720 pixels
Height : 576 pixels
Display aspect ratio : 16:9
Frame rate : 25.000 fps
Standard : PAL
Color space : YUV
Chroma subsampling : 4:2:0
Bit depth : 8 bits
Scan type : Interlaced
Bits/(Pixel*Frame) : 0.289
Stream size : 2.68 GiB (91%)
Audio
ID : 700 (0x2BC)
Menu ID : 1 (0x1)
Format : MPEG Audio
Format version : Version 1
Format profile : Layer 2
Codec ID : 3
Duration : 2h 10mn
Bit rate mode : Constant
Bit rate : 128 Kbps
Channel(s) : 2 channels
Sampling rate : 48.0 KHz
Compression mode : Lossy
Delay relative to video : -1s 392ms
Stream size : 119 MiB (4%)
Menu
ID : 1000 (0x3E8)
Menu ID : 1 (0x1)
Duration : 2h 10mn
List : 500 (0x1F4) (AVC) / 700 (0x2BC) (MPEG Audio)
Service name : UZREPORT-TV
Service type : digital television]

Скриншоты



Создавать темы 13-Мар-2016 21:39

[Профиль]  [ЛС] 

ruhal

Стаж: 2 года 7 месяцев

Сообщений: 1181

Симпатии: 1836

Закрыто. Записано с Местного телеканала

Создавать темы 14-Мар-2016 20:16

[Профиль]  [ЛС] 
Показать сообщения:    
Ответить на тему

Текущее время: 21-Ноя 15:12

Часовой пояс: UTC + 5



Вы не можете начинать темы
Вы не можете отвечать на сообщения
Вы не можете редактировать свои сообщения
Вы не можете удалять свои сообщения
Вы не можете голосовать в опросах
Вы не можете прикреплять файлы к сообщениям
Вы не можете скачивать файлы